Anti Matter (2016) x 812 (1080p) DD5.1 - 2.0 x264 Phun Psyz

Technical information

  • Category:  > 
  • Size: 1.27 Gb
  • Added:
  • Seeders/Leechers: -seeders, -leechers
  • Updated: 11 days 8 hours 48 minutes ago
  • Views: 0
  • Downloads: -
  • Hash: A0C497133243CC2DD3D5F12577F040EF23165755
  • Video resolution:1080p

Security Recommendation: Become Anonymous While Downloading Torrents

Downloading torrents is getting riskier every day.Use SpyOFF VPN
to make yourself hidden while downloading torrents. By using SpyOFF VPN , your ISP and Government Agencies will not be able to spy on you, neither would they be able to track your online activity.

Click here and BECOME ANONYMOUS before Downloading Torrents!

More details about Anti Matter (2016) x 812 (1080p) DD5.1 - 2.0 x264 Phun Psyz

x265 Size, x264 Compatibility, HD Quality
www.imdb.com/title/tt4881364/
Anti Matter (AKA Worm) is a sci-fi noir take on the Alice in Wonderland tale. Ana, an Oxford PhD student, finds herself unable to build new memories following an experiment to generate and travel through a wormhole. The story follows her increasingly desperate efforts to understand what happened, and to find out who - or what - is behind the rising horror in her life.
Source: FGT (3.48 GiB)
Anti Matter (2016) x 812 (1080p) DD5.1 - 2.0 x264 Phun Psyz in Movies
Anti Matter (2016) x 812 (1080p) DD5.1 - 2.0 x264 Phun Psyz in Movies
Anti Matter (2016) x 812 (1080p) DD5.1 - 2.0 x264 Phun Psyz in Movies
Anti Matter (2016) x 812 (1080p) DD5.1 - 2.0 x264 Phun Psyz in Movies
Anti Matter (2016) x 812 (1080p) DD5.1 - 2.0 x264 Phun Psyz in Movies
Anti Matter (2016) x 812 (1080p) DD5.1 - 2.0 x264 Phun Psyz in Movies
Anti Matter (2016) x 812 (1080p) DD5.1 - 2.0 x264 Phun Psyz in Movies
Format : MPEG-4
Format profile : Base Media / Version 2
Codec ID : mp42 (isom/iso2/avc1/mp41)
File size : 1.27 GiB
Duration : 1 h 45 min
Overall bit rate mode : Variable
Overall bit rate : 1 717 kb/s
Writing application : HandBrake 1.0.7 2017040900
Video
ID : 1
Format : AVC
Format/Info : Advanced Video Codec
Format profile : [email protected]
Format settings, CABAC : Yes
Format settings, ReFrames : 8 frames
Codec ID : avc1
Codec ID/Info : Advanced Video Coding
Duration : 1 h 45 min
Bit rate : 1 226 kb/s
Width : 1 920 pixels
Height : 812 pixels
Display aspect ratio : 2.35:1
Frame rate mode : Variable
Frame rate : 23.976 (24000/1001) FPS
Minimum frame rate : 23.974 FPS
Maximum frame rate : 23.981 FPS
Color space : YUV
Chroma subsampling : 4:2:0
Bit depth : 8 bits
Scan type : Progressive
Bits/(Pixel*Frame) : 0.033
Stream size : 929 MiB (71%)
Writing library : x264 core 148 r2708 86b7198
Color range : Limited
Color primaries : BT.709
Transfer characteristics : BT.709
Matrix coefficients : BT.709
Menus : 5
Audio #1
ID : 2
Format : AAC
Format/Info : Advanced Audio Codec
Format profile : LC
Codec ID : 40
Duration : 1 h 45 min
Bit rate mode : Variable
Bit rate : 321 kb/s
Channel(s) : 2 channels
Channel positions : Front: L R
Sampling rate : 48.0 kHz
Frame rate : 46.875 FPS (1024 spf)
Compression mode : Lossy
Stream size : 243 MiB (19%)
Title : Stereo / Stereo
Language : English
Default : Yes
Alternate group : 1
Menus : 5
Audio #2
ID : 3
Format : AAC
Format/Info : Advanced Audio Codec
Format profile : LC
Codec ID : 40
Duration : 1 h 45 min
Bit rate mode : Variable
Bit rate : 160 kb/s
Channel(s) : 2 channels
Channel positions : Front: L R
Sampling rate : 48.0 kHz
Frame rate : 46.875 FPS (1024 spf)
Compression mode : Lossy
Stream size : 121 MiB (9%)
Title : Stereo / Stereo
Language : English
Default : No
Alternate group : 1
Menus : 5
Text
ID : 4
Format : Timed Text
Muxing mode : sbtl
Codec ID : tx3g
Duration : 1 h 43 min
Bit rate mode : Variable
Bit rate : 61 b/s
Stream size : 46.8 KiB (0%)
Language : English
Default : Yes
Forced : No
Alternate group : 3
Menus : 5
Menu
ID : 5
Codec ID : text
Duration : 1 h 45 min
Language : English
Menu For : 1,2,3,4
00:00:00.000 : 1
00:11:30.023 : 2
00:24:22.795 : 3
00:32:43.295 : 4
00:43:49.293 : 5
00:55:21.985 : 6
01:06:53.343 : 7
01:16:27.249 : 8
01:26:07.829 : 9
01:33:18.927 : 10
01:44:32.933 : 11
Bit rate mode : VBR

 Related torrents

Torrent name Subcategory Age Size
Other 2 weeks 1.27 Gb 0 0
Other 2 weeks 970.95 Mb 0 0
Other 2 weeks 856.11 Mb 0 0
Other 2 weeks 754.62 Mb 0 0
Other 2 weeks 750.85 Mb 0 0
Other 2 weeks 1.35 Gb 0 0
Other 2 weeks 704.44 Mb 0 0
Other 2 weeks 853.19 Mb 0 0
Other 2 weeks 1.35 Gb 0 0
Other 2 weeks 1.35 Gb 0 0