Assassins Creed 2016 HDTS HEVC ENG SUB x265

  • Assassin
  • Title:Assassin's Creed
  • Released:
  • Country:France, United Kingdom, United States
  • Runtime:140 min
  • Genres:Action, Adventure, History, Science Fiction
  • Director:Justin Kurzel
  • Writer:
  • Production company:20th Century Fox
  • Rated:PG-13Some material may be inappropriate for children under 13. Parents are urged to be cautious.
  • Budget:$200 million
  • Keywords:brotherhood, based on video game, assasin
  • Overview:Lynch discovers he is a descendant of the secret Assassins society through unlocked genetic memories that allow him to relive the adventures of his ancestor, Aguilar, in 15th Century Spain. After gaining incredible knowledge and skills he’s poised to take on the oppressive Knights Templar in the present day.
  • Tagline:Your destiny is in your blood
  • Subtitles:Opensubtitles

Technical information

  • Category:  > 
  • Size: 556.82 Mb
  • Added:
  • Seeders/Leechers: -seeders, -leechers
  • Updated: 19 days 22 hours 11 minutes ago
  • Views: 0
  • Downloads: -
  • Hash: 916DBEDDDDBFE46F6D4CA32956857CFB1E549A0A

Security Recommendation: Become Anonymous While Downloading Torrents

Downloading torrents is getting riskier every day.Use SpyOFF VPN
to make yourself hidden while downloading torrents. By using SpyOFF VPN , your ISP and Government Agencies will not be able to spy on you, neither would they be able to track your online activity.

Click here and BECOME ANONYMOUS before Downloading Torrents!

More details about Assassins Creed 2016 HDTS HEVC ENG SUB x265


Assassins Creed 2016 HDTS HEVC ENG SUB x265 in Movies
http://i.imgur.com/r00IB9w.png
http://i.imgur.com/iI6qst4.png
http://i.imgur.com/86VEMy4.png
http://i.imgur.com/66pL5ha.png
https://youtu.be/MDxFK2JDvHU
Assassins Creed 2016 HDTS HEVC ENG SUB x265 in Movies
TiTLE: Assassin's Creed 2016 TS SUBBED - SiNDK8
iMDB: http://www.imdb.com/title/tt2094766/
SOURCE: ViD: NAKRO
AUD: NAKRO TS
SiZE: 1.08 GiB
~~~~~~~~~~~~~~~~~~~~~~~~~~~~~~~~~~~~~~~~~~
ViDEO
~~~~~~~~~~~~~~~~~~~~~~~~~~~~~~~~~~~~~~~~~~
Format : AVC
Format/Info : Advanced Video Codec
Format profile : [email protected]/* */
Format settings, CABAC : Yes
Format settings, ReFrames : 4 frames
Codec ID : V_MPEG4/ISO/AVC
Duration : 1 h 40 min
Bit rate : 1 349 kb/s
Width : 720 pixels
Height : 304 pixels
Display aspect ratio : 2.35:1
Frame rate mode : Constant
Frame rate : 30.303 FPS
Color space : YUV
Chroma subsampling : 4:2:0
Bit depth : 8 bits
Scan type : Progressive
Bits/(Pixel*Frame) : 0.203
Stream size : 971 MiB (87%)
~~~~~~~~~~~~~~~~~~~~~~~~~~~~~~~~~~~~~~~~~~
AUDiO
~~~~~~~~~~~~~~~~~~~~~~~~~~~~~~~~~~~~~~~~~~
Format : MPEG Audio
Format version : Version 1
Format profile : Layer 3
Codec ID : A_MPEG/L3
Codec ID/Hint : MP3
Duration : 1 h 40 min
Bit rate mode : Constant
Bit rate : 192 kb/s
Channel(s) : 2 channels
Sampling rate : 44.1 kHz
Frame rate : 38.281 FPS (1152 spf)
Compression mode : Lossy
Stream size : 138 MiB (12%)
Writing library : LAME3.99.5
Language : English
Default : Yes
Forced : No


 Related torrents

Torrent name Subcategory Age Size
Other 1 week 680.13 Mb 0 0
Other 1 week 678.5 Mb 0 0
Other 2 weeks 685.56 Mb 0 0
Other 2 weeks 1.37 Gb 0 0
Other 2 weeks 807.73 Mb 0 0
Other 2 weeks 1.37 Gb 0 0
Other 2 weeks 804.35 Mb 0 0
Other 3 weeks 556.82 Mb 0 0
Other 3 weeks 741.58 Mb 0 0
Other 3 weeks 741.58 Mb 0 0