Assassins.Creed.2016.HDTS.ENG.SUB.x265-NEBO666[PRiME]

  • Assassin
  • Title:Assassin's Creed
  • Released:
  • Country:France, United Kingdom, United States
  • Runtime:140 min
  • Genres:Action, Adventure, History, Science Fiction
  • Director:Justin Kurzel
  • Writer:
  • Production company:20th Century Fox
  • Rated:PG-13Some material may be inappropriate for children under 13. Parents are urged to be cautious.
  • Budget:$200 million
  • Keywords:brotherhood, based on video game, assasin
  • Overview:Lynch discovers he is a descendant of the secret Assassins society through unlocked genetic memories that allow him to relive the adventures of his ancestor, Aguilar, in 15th Century Spain. After gaining incredible knowledge and skills he’s poised to take on the oppressive Knights Templar in the present day.
  • Tagline:Your destiny is in your blood
  • Subtitles:Opensubtitles

Technical information

  • Category:  > 
  • Size: 741.58 Mb
  • Added:
  • Seeders/Leechers: -seeders, -leechers
  • Updated: 20 days 3 hours 37 minutes ago
  • Views: 0
  • Downloads: -
  • Hash: 6BB1BA9F76A388BF237B7764624A1726D9BC0A53

Security Recommendation: Become Anonymous While Downloading Torrents

Downloading torrents is getting riskier every day.Use SpyOFF VPN
to make yourself hidden while downloading torrents. By using SpyOFF VPN , your ISP and Government Agencies will not be able to spy on you, neither would they be able to track your online activity.

Click here and BECOME ANONYMOUS before Downloading Torrents!

More details about Assassins.Creed.2016.HDTS.ENG.SUB.x265-NEBO666[PRiME]


Assassins.Creed.2016.HDTS.ENG.SUB.x265-NEBO666[PRiME]
ImDb: http://www.imdb.com/title/tt2094766
Assassins.Creed.2016.HDTS.ENG.SUB.x265-NEBO666[PRiME] in Movies
Complete name : Assassins.Creed.2016.HDTS.ENG.SUB.x265-NEBO666[PRiME].mkv
Format : Matroska
Format version : Version 4 / Version 2
File size : 742 MiB
Duration : 1 h 40 min
Overall bit rate : 1 029 kb/s
Encoded date : UTC 2016-12-30 04:19:16
Writing application : mkvmerge v9.2.0 ('Photograph') 64bit
Writing library : libebml v1.3.3 libmatroska v1.4.4
Video
ID : 1
Format : HEVC
Format/Info : High Efficiency Video Coding
Format profile : Main [email protected]/* */@Main
Codec ID : V_MPEGH/ISO/HEVC
Duration : 1 h 40 min
Bit rate : 835 kb/s
Width : 720 pixels
Height : 304 pixels
Display aspect ratio : 2.35:1
Frame rate mode : Constant
Frame rate : 29.970 (30000/1001) FPS
Color space : YUV
Chroma subsampling : 4:2:0
Bit depth : 10 bits
Bits/(Pixel*Frame) : 0.127
Stream size : 602 MiB (81%)
Writing library : x265 2.1 49-95451de5f12929f9:[Windows][GCC 6.2.0][64 bit] 10bit: KG7x [x265.ru]
Encoding settings : frame-threads=2 / level-idc=0 / numa-pools=4 / wpp / ctu=64 / min-cu-size=8 / max-tu-size=32 / tu-intra-depth=1 / tu-inter-depth=1 / me=1 / subme=1 / merange=57 / no-rect / no-amp / max-merge=2 / temporal-mvp / early-skip / rskip / rdpenalty=0 / no-tskip / no-tskip-fast / strong-intra-smoothing / no-lossless / no-cu-lossless / no-constrained-intra / fast-intra / open-gop / no-temporal-layers / interlace=0 / keyint=250 / min-keyint=25 / scenecut=40 / scenecut-bias=0.05 / rc-lookahead=15 / lookahead-slices=0 / bframes=4 / bframe-bias=0 / b-adapt=0 / ref=2 / limit-refs=3 / no-limit-modes / weightp / no-weightb / aq-mode=1 / qg-size=32 / aq-strength=1.00 / cbqpoffs=0 / crqpoffs=0 / rd=2 / psy-rd=2.00 / rdoq-level=0 / psy-rdoq=0.00 / log2-max-poc-lsb=8 / limit-tu=0 / no-rd-refine / signhide / deblock=0:0 / sao / no-sao-non-deblock / b-pyramid / cutree / no-intra-refresh / rc=2 / pass / bitrate=834 / qcomp=0.60 / qpmin=0 / qpmax=69 / qpstep=4 / cplxblur=20.0 / qblur=0.5 / ipratio=1.40 / pbratio=1.30 / uhd-bd=0 / slices=1
Default : Yes
Forced : No
Audio
ID : 2
Format : MPEG Audio
Format version : Version 1
Format profile : Layer 3
Codec ID : A_MPEG/L3
Codec ID/Hint : MP3
Duration : 1 h 40 min
Bit rate mode : Constant
Bit rate : 192 kb/s
Channel(s) : 2 channels
Sampling rate : 44.1 kHz
Frame rate : 38.281 FPS (1152 spf)
Compression mode : Lossy
Delay relative to video : 13 ms
Stream size : 138 MiB (19%)
Title : Assassins.Creed.2016.HDTS.ENG.SUB.x265-NEBO666
Writing library : LAME3.99.5
Default : Yes
Forced : No
Assassins.Creed.2016.HDTS.ENG.SUB.x265-NEBO666[PRiME] in Movies
Click Image To View Full Size
Assassins.Creed.2016.HDTS.ENG.SUB.x265-NEBO666[PRiME] in Movies
Click To View Screenshot
Click To View Screenshot
Click To View Screenshot

 Related torrents

Torrent name Subcategory Age Size
Other 1 week 680.13 Mb 0 0
Other 1 week 678.5 Mb 0 0
Other 2 weeks 685.56 Mb 0 0
Other 2 weeks 1.37 Gb 0 0
Other 2 weeks 807.73 Mb 0 0
Other 2 weeks 1.37 Gb 0 0
Other 2 weeks 804.35 Mb 0 0
Other 3 weeks 556.82 Mb 0 0
Other 3 weeks 741.58 Mb 0 0
Other 3 weeks 741.58 Mb 0 0