Assassins.Creed.2016.HDTS.XVID.AC3.HQ.Hive-CM8

  • Assassin
  • Title:Assassin's Creed
  • Released:
  • Country:France, United Kingdom, United States
  • Runtime:140 min
  • Genres:Action, Adventure, History, Science Fiction
  • Director:Justin Kurzel
  • Writer:
  • Production company:20th Century Fox
  • Rated:PG-13Some material may be inappropriate for children under 13. Parents are urged to be cautious.
  • Budget:$200 million
  • Keywords:brotherhood, based on video game, assasin
  • Overview:Lynch discovers he is a descendant of the secret Assassins society through unlocked genetic memories that allow him to relive the adventures of his ancestor, Aguilar, in 15th Century Spain. After gaining incredible knowledge and skills he’s poised to take on the oppressive Knights Templar in the present day.
  • Tagline:Your destiny is in your blood
  • Subtitles:Opensubtitles

Technical information

  • Category:  > 
  • Size: 1.4 Gb
  • Added:
  • Seeders/Leechers: -seeders, -leechers
  • Updated: 19 days 13 hours 17 minutes ago
  • Views: 0
  • Downloads: -
  • Hash: E962D1DD7E96710996154E5C5B06C55DFDEDAC63

Security Recommendation: Become Anonymous While Downloading Torrents

Downloading torrents is getting riskier every day.Use SpyOFF VPN
to make yourself hidden while downloading torrents. By using SpyOFF VPN , your ISP and Government Agencies will not be able to spy on you, neither would they be able to track your online activity.

Click here and BECOME ANONYMOUS before Downloading Torrents!

More details about Assassins.Creed.2016.HDTS.XVID.AC3.HQ.Hive-CM8

Assassins Creed 2016 HDTS XVID AC3 HQ Hive-CM8
Assassins.Creed.2016.HDTS.XVID.AC3.HQ.Hive-CM8 in Movies
Thx Hive
CM8 Doing It Right The First Time
Sources:
Video: French Source HDCAM no watermarks thx m8
Audio: English Digital Line Audio (thx cpg)
thx
NEWS:
yes still here and kicking, we had to do a brake for some time, bet you are waiting for screeners, yep why not
we were definately not in the mood to do the same mistake as last year screeners before christmas or cinedate
now that christmas holidays are past we are actually looking forward to get the dice rolling
we want to get them out safely and secure as every year
whoever has a screener or knows someone who has one and wants to share privately or for public just let us know we are here. (eg.B5 if you want)
addy is at bottom
Notes:
had the french sourcefiles for some days, was waiting for line to mix them together, fits now nicely
Encode:
Quality was already nice, rotated video and fixed perspective. there was no need to add brightness or sharpness
added line audio from cpg, added subs for the major foreign speaking parts to let you know whats going on
got very nice, will do me till retail
enjoy
Video: 720x320 @bitrate 1700 2pass
Audio: English Digital Line Audio AC3 2.0
Sample: yes included
http://www.imdb.com/title/tt2094766/
General
Complete name: Assassins.Creed.2016.HDTS.XVID.AC3.HQ.Hive-CM8.avi
Format: AVI
Format/Info: Audio Video Interleave
File size: 1.39 GiB
Duration: 1h 40mn
Overall bit rate: 1 967 Kbps
Writing application: Nandub v1.0rc2
Writing library: Nandub build 1853/release
Video
ID: 0
Format: MPEG-4 Visual
Format profile: Advanced [email protected]/* */
Format settings, BVOP: 2
Format settings, QPel: Yes
Format settings, GMC: No warppoints
Format settings, Matrix: Default (H.263)
Muxing mode: Packed bitstream
Codec ID: XVID
Codec ID/Hint: XviD
Duration: 1h 40mn
Bit rate: 1 700 Kbps
Width: 720 pixels
Height: 320 pixels
Display aspect ratio: 2.25:1
Frame rate: 30.000 fps
Color space: YUV
Chroma subsampling: 4:2:0
Bit depth: 8 bits
Scan type: Progressive
Compression mode: Lossy
Bits/(Pixel*Frame): 0.246
Stream size: 1.20 GiB (86%)
Writing library: XviD 1.2.1 (UTC 2008-12-04)
Audio
ID: 1
Format: AC-3
Format/Info: Audio Coding 3
Mode extension: CM (complete main)
Format settings, Endianness: Big
Codec ID: 2000
Duration: 1h 40mn
Bit rate mode: Constant
Bit rate: 256 Kbps
Channel(s): 2 channels
Channel positions: Front: L R
Sampling rate: 48.0 KHz
Bit depth: 16 bits
Compression mode: Lossy
Stream size: 184 MiB (13%)
Alignment: Split accross interleaves
Interleave, duration: 33 ms (1.00 video frame)
Interleave, preload duration: 500 ms
Screens:
Assassins.Creed.2016.HDTS.XVID.AC3.HQ.Hive-CM8 in Movies Assassins.Creed.2016.HDTS.XVID.AC3.HQ.Hive-CM8 in Movies Assassins.Creed.2016.HDTS.XVID.AC3.HQ.Hive-CM8 in Movies Assassins.Creed.2016.HDTS.XVID.AC3.HQ.Hive-CM8 in Movies Assassins.Creed.2016.HDTS.XVID.AC3.HQ.Hive-CM8 in Movies Assassins.Creed.2016.HDTS.XVID.AC3.HQ.Hive-CM8 in Movies

 Related torrents

Torrent name Subcategory Age Size
Other 1 week 680.13 Mb 0 0
Other 1 week 678.5 Mb 0 0
Other 1 week 685.56 Mb 0 0
Other 2 weeks 1.37 Gb 0 0
Other 2 weeks 807.73 Mb 0 0
Other 2 weeks 1.37 Gb 0 0
Other 2 weeks 804.35 Mb 0 0
Other 3 weeks 556.82 Mb 0 0
Other 3 weeks 741.58 Mb 0 0
Other 3 weeks 741.58 Mb 0 0