Christine.2016.HDRip.XviD.AC3-iFT[PRiME]

  • Title:Christine
  • Released:
  • Country:United States
  • Runtime:123 min
  • Genres:Drama
  • Director:Antonio Campos
  • Writer:
  • Production company:Borderline Films
  • Rated:RUnder 17 requires accompanying parent or adult guardian. Contains some adult material.
  • Rating imdb:7.3
  • RottenTomatoes:7.2
  • Awards:1 win & 4 nominations.
  • Keywords:suicide, biography, news broadcaster
  • Overview:Christine is an ambitious 29-year-old news reporter, in Sarasota, FL, circa 1974. Relentlessly motivated to succeed, she knows she has talent, but being a driven career woman in the 1970s comes with its own challenges, especially when competition for a promotion, unrequited love for a coworker and a tumultuous home life lead to a dissolution of self. With ratings in the cellar, the station manager issues a mandate to deliver juicier and more exploitative stories, a story firmly at odds with Christine’s serious brand of issue-based journalism. To accomplish her goals, she must overcome her self-doubt and give the people what they want.
  • Subtitles:Opensubtitles

Technical information

  • Category:  > 
  • Size: 1.91 Gb
  • Added:
  • Seeders/Leechers: -seeders, -leechers
  • Updated: 3 months 18 days 21 hours ago
  • Views: 0
  • Downloads: -
  • Hash: 6A41B6E429ACBF6DC6595D3FA1CA7A0ED8A39A75
  • Video quality:HDRip

Security Recommendation: Become Anonymous While Downloading Torrents

Downloading torrents is getting riskier every day.Use SpyOFF VPN
to make yourself hidden while downloading torrents. By using SpyOFF VPN , your ISP and Government Agencies will not be able to spy on you, neither would they be able to track your online activity.

Click here and BECOME ANONYMOUS before Downloading Torrents!

More details about Christine.2016.HDRip.XviD.AC3-iFT[PRiME]


Christine.2016.HDRip.XviD.AC3-iFT[PRiME]
ImDb: http://www.imdb.com/title/tt4666726
Christine.2016.HDRip.XviD.AC3-iFT[PRiME] in Movies
Complete name : Christine.2016.HDRip.XviD.AC3-iFT[PRiME].avi
Format : AVI
Format/Info : Audio Video Interleave
Format profile : OpenDML
Format settings : rec
File size : 1.90 GiB
Duration : 1 h 59 min
Overall bit rate : 2 285 kb/s
Writing application : AVI-Mux GUI 1.17.8.3, Feb 16 201019:42:50
Video
ID : 0
Format : MPEG-4 Visual
Format profile : Advanced [email protected]/* */
Format settings, BVOP : 2
Format settings, QPel : No
Format settings, GMC : No warppoints
Format settings, Matrix : Default (H.263)
Muxing mode : Packed bitstream
Codec ID : XVID
Codec ID/Hint : XviD
Duration : 1 h 59 min
Bit rate : 1 896 kb/s
Width : 720 pixels
Height : 400 pixels
Display aspect ratio : 16:9
Frame rate : 23.976 (23976/1000) FPS
Color space : YUV
Chroma subsampling : 4:2:0
Bit depth : 8 bits
Scan type : Progressive
Compression mode : Lossy
Bits/(Pixel*Frame) : 0.275
Stream size : 1.58 GiB (83%)
Writing library : XviD 73
Audio
ID : 1
Format : AC-3
Format/Info : Audio Coding 3
Mode extension : CM (complete main)
Format settings, Endianness : Big
Codec ID : 2000
Duration : 1 h 59 min
Bit rate mode : Constant
Bit rate : 384 kb/s
Channel(s) : 6 channels
Channel positions : Front: L C R, Side: L R, LFE
Sampling rate : 48.0 kHz
Frame rate : 31.250 FPS (1536 spf)
Compression mode : Lossy
Stream size : 327 MiB (17%)
Alignment : Aligned on interleaves
Interleave, duration : 64 ms (1.53 video frames)
Interleave, preload duration : 192 ms
Title : Christine.track_2
Christine.2016.HDRip.XviD.AC3-iFT[PRiME] in Movies
Click Image To View Full Size
Christine.2016.HDRip.XviD.AC3-iFT[PRiME] in Movies
Click To View Screenshot
Click To View Screenshot
Click To View Screenshot

 Related torrents

Torrent name Subcategory Age Size
Other 2 months 902.7 Mb 0 0
Other 2 months 1.83 Gb 0 0
Other 2 months 943.31 Mb 0 0
Other 2 months 1.76 Gb 0 0
Other 2 months 900.31 Mb 0 0
Other 2 months 985.23 Mb 0 0
Other 2 months 1.02 Gb 0 0
Other 2 months 1.38 Gb 0 0
Other 2 months 1.01 Gb 0 0
Other 2 months 1.38 Gb 0 0