Christine.2016.WEB-DL.AC3.2.0.x264-BDP[PRiME]

  • Title:Christine
  • Released:
  • Country:United States
  • Runtime:123 min
  • Genres:Drama
  • Director:Antonio Campos
  • Writer:
  • Production company:Borderline Films
  • Rated:RUnder 17 requires accompanying parent or adult guardian. Contains some adult material.
  • Rating imdb:7.3
  • RottenTomatoes:7.2
  • Awards:1 win & 4 nominations.
  • Keywords:suicide, biography, news broadcaster
  • Overview:Christine is an ambitious 29-year-old news reporter, in Sarasota, FL, circa 1974. Relentlessly motivated to succeed, she knows she has talent, but being a driven career woman in the 1970s comes with its own challenges, especially when competition for a promotion, unrequited love for a coworker and a tumultuous home life lead to a dissolution of self. With ratings in the cellar, the station manager issues a mandate to deliver juicier and more exploitative stories, a story firmly at odds with Christine’s serious brand of issue-based journalism. To accomplish her goals, she must overcome her self-doubt and give the people what they want.
  • Subtitles:Opensubtitles

Technical information

  • Category:  > 
  • Size: 697.04 Mb
  • Added:
  • Seeders/Leechers: -seeders, -leechers
  • Updated: 2 months 19 days 4 hours ago
  • Views: 0
  • Downloads: -
  • Hash: 19CDC9CF6CD79C3C93CA41116B53F154B7CCFADA
  • Video quality:WEB DL

Security Recommendation: Become Anonymous While Downloading Torrents

Downloading torrents is getting riskier every day.Use SpyOFF VPN
to make yourself hidden while downloading torrents. By using SpyOFF VPN , your ISP and Government Agencies will not be able to spy on you, neither would they be able to track your online activity.

Click here and BECOME ANONYMOUS before Downloading Torrents!

More details about Christine.2016.WEB-DL.AC3.2.0.x264-BDP[PRiME]


Christine.2016.WEB-DL.AC3.2.0.x264-BDP[PRiME]
ImDb: http://www.imdb.com/title/tt4666726
Christine.2016.WEB-DL.AC3.2.0.x264-BDP[PRiME] in Movies
Complete name : Christine.2016.WEB-DL.AC3.2.0.x264-BDP[PRiME].mkv
Format : Matroska
Format version : Version 4 / Version 2
File size : 697 MiB
Duration : 1 h 59 min
Overall bit rate : 818 kb/s
Encoded date : UTC 2017-01-10 15:47:14
Writing application : Lavf57.46.100
Writing library : Lavf57.46.100 / Lavf57.46.100
COMPOSER : Encoder *BDP*
Video
ID : 1
Format : AVC
Format/Info : Advanced Video Codec
Format profile : [email protected]/* */
Format settings, CABAC : Yes
Format settings, ReFrames : 5 frames
Codec ID : V_MPEG4/ISO/AVC
Duration : 1 h 59 min
Bit rate : 642 kb/s
Nominal bit rate : 677 kb/s
Width : 720 pixels
Height : 384 pixels
Display aspect ratio : 16:9
Original display aspect ratio : 16:9
Frame rate mode : Constant
Frame rate : 23.976 (24000/1001) FPS
Standard : Component
Color space : YUV
Chroma subsampling : 4:2:0
Bit depth : 8 bits
Scan type : Progressive
Bits/(Pixel*Frame) : 0.097
Stream size : 547 MiB (78%)
Writing library : x264 core 148 r2643
Encoding settings : cabac=1 / ref=5 / deblock=1:-3:-3 / analyse=0x3:0x133 / me=umh / subme=7 / psy=1 / psy_rd=1.00:0.00 / mixed_ref=1 / me_range=24 / chroma_me=1 / trellis=1 / 8x8dct=1 / cqm=0 / deadzone=21,11 / fast_pskip=1 / chroma_qp_offset=-2 / threads=12 / lookahead_threads=2 / sliced_threads=0 / nr=0 / decimate=1 / interlaced=0 / bluray_compat=0 / constrained_intra=0 / bframes=3 / b_pyramid=0 / b_adapt=1 / b_bias=0 / direct=1 / weightb=1 / open_gop=1 / weightp=2 / keyint=239 / keyint_min=23 / scenecut=40 / intra_refresh=0 / rc_lookahead=40 / rc=abr / mbtree=1 / bitrate=677 / ratetol=1.0 / qcomp=0.60 / qpmin=10 / qpmax=69 / qpstep=4 / vbv_maxrate=31164 / vbv_bufsize=31164 / nal_hrd=none / filler=0 / ip_ratio=1.40 / aq=3:1.00
Default : Yes
Forced : No
Color range : Limited
Color primaries : BT.709
Transfer characteristics : BT.709
Matrix coefficients : BT.709
DURATION : 01:59:03.600000000
Audio
ID : 2
Format : AC-3
Format/Info : Audio Coding 3
Mode extension : CM (complete main)
Format settings, Endianness : Big
Codec ID : A_AC3
Duration : 1 h 59 min
Bit rate mode : Constant
Bit rate : 160 kb/s
Channel(s) : 2 channels
Channel positions : Front: L R
Sampling rate : 48.0 kHz
Frame rate : 31.250 FPS (1536 spf)
Bit depth : 16 bits
Compression mode : Lossy
Stream size : 136 MiB (20%)
Writing library : Lavc57.51.100 ac3_fixed
Default : Yes
Forced : No
DURATION : 01:59:03.552000000
Christine.2016.WEB-DL.AC3.2.0.x264-BDP[PRiME] in Movies
Click Image To View Full Size
Christine.2016.WEB-DL.AC3.2.0.x264-BDP[PRiME] in Movies
Click To View Screenshot
Click To View Screenshot
Click To View Screenshot

 Related torrents

Torrent name Subcategory Age Size
Other 1 month 902.7 Mb 0 0
Other 1 month 1.83 Gb 0 0
Other 1 month 943.31 Mb 0 0
Other 1 month 1.76 Gb 0 0
Other 1 month 900.31 Mb 0 0
Other 1 month 985.23 Mb 0 0
Other 1 month 1.02 Gb 0 0
Other 1 month 1.38 Gb 0 0
Other 1 month 1.01 Gb 0 0
Other 1 month 1.38 Gb 0 0