Come.Dine.With.Me.South.Africa.S03E09.HDTV.x264-DOCERE

Technical information

  • Category:  > 
  • Size: 459.56 Mb
  • Added:
  • Seeders/Leechers: -seeders, -leechers
  • Updated: 11 days 10 hours 10 minutes ago
  • Views: 0
  • Downloads: -
  • Hash: 0C94DE37AF0CA400E383A1995A9C91DF40DB798E

Security Recommendation: Become Anonymous While Downloading Torrents

Downloading torrents is getting riskier every day.Use SpyOFF VPN
to make yourself hidden while downloading torrents. By using SpyOFF VPN , your ISP and Government Agencies will not be able to spy on you, neither would they be able to track your online activity.

Click here and BECOME ANONYMOUS before Downloading Torrents!

More details about Come.Dine.With.Me.South.Africa.S03E09.HDTV.x264-DOCERE

Come.Dine.With.Me.South.Africa.S03E09.HDTV.x264-DOCERE
Come.Dine.With.Me.South.Africa.S03E09.HDTV.x264-DOCERE in TV
Complete name : come.dine.with.me.south.africa.s03e09.hdtv-docere.mkv
Format : Matroska
Format version : Version 4 / Version 2
File size : 460 MiB
Duration : 50 min 23 s
Overall bit rate : 1 275 kb/s
Encoded date : UTC 2017-09-13 12:24:04
Writing application : mkvmerge v9.6.0 ('Slave To Your Mind') 64bit
Writing library : libebml v1.3.4 libmatroska v1.4.5
Video
ID : 1
Format : AVC
Format/Info : Advanced Video Codec
Format profile : [email protected]
Format settings, CABAC : Yes
Format settings, ReFrames : 5 frames
Codec ID : V_MPEG4/ISO/AVC
Duration : 50 min 23 s
Bit rate : 1 146 kb/s
Width : 720 pixels
Height : 404 pixels
Display aspect ratio : 16:9
Frame rate mode : Constant
Frame rate : 50.000 FPS
Color space : YUV
Chroma subsampling : 4:2:0
Bit depth : 8 bits
Scan type : Progressive
Bits/(Pixel*Frame) : 0.079
Stream size : 413 MiB (90%)
Writing library : x264 core 152 r2851 ba24899
Encoding settings : cabac=1 / ref=5 / deblock=1:0:0 / analyse=0x3:0x113 / me=hex / subme=8 / psy=1 / psy_rd=1.00:0.00 / mixed_ref=1 / me_range=16 / chroma_me=1 / trellis=2 / 8x8dct=1 / cqm=0 / deadzone=21,11 / fast_pskip=1 / chroma_qp_offset=-2 / threads=13 / lookahead_threads=2 / sliced_threads=0 / nr=0 / decimate=1 / interlaced=0 / bluray_compat=0 / stitchable=1 / constrained_intra=0 / bframes=3 / b_pyramid=2 / b_adapt=1 / b_bias=0 / direct=3 / weightb=1 / open_gop=0 / weightp=2 / keyint=250 / keyint_min=25 / scenecut=40 / intra_refresh=0 / rc_lookahead=50 / rc=crf / mbtree=1 / crf=20.0 / qcomp=0.60 / qpmin=0 / qpmax=69 / qpstep=4 / ip_ratio=1.40 / aq=1:1.00
Default : Yes
Forced : No
Color range : Limited
Color primaries : BT.709
Transfer characteristics : BT.709
Matrix coefficients : BT.709
Audio
ID : 2
Format : AAC
Format/Info : Advanced Audio Codec
Format profile : LC
Codec ID : A_AAC
Duration : 50 min 23 s
Bit rate : 125 kb/s
Channel(s) : 2 channels
Channel positions : Front: L R
Sampling rate : 48.0 kHz
Frame rate : 46.875 FPS (1024 spf)
Compression mode : Lossy
Stream size : 45.2 MiB (10%)
Default : Yes
Forced : No
Come.Dine.With.Me.South.Africa.S03E09.HDTV.x264-DOCERE in TV
Come.Dine.With.Me.South.Africa.S03E09.HDTV.x264-DOCERE in TV
Click To View Screenshot
Click To View Screenshot
Click To View Screenshot

 Related torrents

Torrent name Subcategory Age Size
Other 6 days 484.16 Mb 0 0
Other 6 days 1.28 Gb 0 0
Other 6 days 495.36 Mb 0 0
Other 6 days 1.3 Gb 0 0
Other 6 days 439.76 Mb 0 0
Other 6 days 1.18 Gb 0 0
Other 2 weeks 1.32 Gb 0 0
Other 2 weeks 459.56 Mb 0 0
Other 3 weeks 292.04 Mb 0 0
Other 3 weeks 267.98 Mb 0 0