Deepwater Horizon 2016 HDRip x264 AC3-DR.[PRiME] torrent

  • Title:Deepwater Horizon
  • Released:
  • Country:United States
  • Runtime:107 min
  • Genres:Drama
  • Director:Peter Berg
  • Writer:
  • Production company:Lionsgate
  • Rated:PG-13Some material may be inappropriate for children under 13. Parents are urged to be cautious.
  • Rating imdb:7.4
  • RottenTomatoes:7.0
  • Awards:1 win.
  • Budget:$156 million
  • Keywords:disaster, oil spill, gulf of mexico, bp
  • Overview:A story set on the offshore drilling rig Deepwater Horizon, which exploded during April 2010 and created the worst oil spill in U.S. history.
  • Tagline:When faced with our darkest hour, hope is not a tactic
  • Subtitles:Opensubtitles

Technical information

  • Category:  > 
  • Size: 1.45 Gb
  • Added:
  • Seeders/Leechers: 32seeders, 7leechers
  • Updated: 2 months 6 hours 19 minutes ago
  • Views: 0
  • Downloads: 46
  • Hash: 1AAA645393373A18B369EFADDFC0C89100B566C2
  • Video quality:HDRip

Security Recommendation: Become Anonymous While Downloading Torrents

Downloading torrents is getting riskier every day.Use SpyOFF VPN
to make yourself hidden while downloading torrents. By using SpyOFF VPN , your ISP and Government Agencies will not be able to spy on you, neither would they be able to track your online activity.

Click here and BECOME ANONYMOUS before Downloading Torrents!

More details about Deepwater Horizon 2016 HDRip x264 AC3-DR.[PRiME] torrent

Deepwater Horizon 2016 HDRip x264 AC3-DR.[PRiME]
ImDb: http://www.imdb.com/title/tt1860357
Deepwater Horizon 2016 HDRip x264 AC3-DR.[PRiME] torrent in Movies
Complete name : Deepwater Horizon 2016 HDRip x264 AC3-DR[PRiME].mkv
Format : Matroska
Format version : Version 2
File size : 1.45 GiB
Duration : 1 h 47 min
Overall bit rate : 1 933 kb/s
Encoded date : UTC 2016-12-20 07:42:37
Writing application : mkvmerge v8.5.2 ('Crosses') 32bit
Writing library : libebml v1.3.3 libmatroska v1.4.4
Video
ID : 1
Format : AVC
Format/Info : Advanced Video Codec
Format profile : [email protected]/* */
Format settings, CABAC : Yes
Format settings, ReFrames : 4 frames
Codec ID : V_MPEG4/ISO/AVC
Duration : 1 h 47 min
Bit rate : 1 547 kb/s
Width : 720 pixels
Height : 304 pixels
Display aspect ratio : 2.35:1
Frame rate mode : Constant
Frame rate : 23.976 (24000/1001) FPS
Color space : YUV
Chroma subsampling : 4:2:0
Bit depth : 8 bits
Scan type : Progressive
Bits/(Pixel*Frame) : 0.295
Stream size : 1.16 GiB (80%)
Writing library : x264 core 148 r2638 7599210
Encoding settings : cabac=1 / ref=3 / deblock=1:0:0 / analyse=0x3:0x113 / me=hex / subme=7 / psy=1 / psy_rd=1.00:0.00 / mixed_ref=1 / me_range=16 / chroma_me=1 / trellis=1 / 8x8dct=1 / cqm=0 / deadzone=21,11 / fast_pskip=1 / chroma_qp_offset=-2 / threads=9 / lookahead_threads=1 / sliced_threads=0 / nr=0 / decimate=1 / interlaced=0 / bluray_compat=0 / constrained_intra=0 / bframes=3 / b_pyramid=2 / b_adapt=1 / b_bias=0 / direct=1 / weightb=1 / open_gop=0 / weightp=2 / keyint=240 / keyint_min=23 / scenecut=40 / intra_refresh=0 / rc_lookahead=40 / rc=2pass / mbtree=1 / bitrate=1547 / ratetol=1.0 / qcomp=0.60 / qpmin=0 / qpmax=69 / qpstep=4 / cplxblur=20.0 / qblur=0.5 / ip_ratio=1.40 / aq=1:1.00
Default : Yes
Forced : No
Audio
ID : 2
Format : AC-3
Format/Info : Audio Coding 3
Mode extension : CM (complete main)
Format settings, Endianness : Big
Codec ID : A_AC3
Duration : 1 h 47 min
Bit rate mode : Constant
Bit rate : 384 kb/s
Channel(s) : 6 channels
Channel positions : Front: L C R, Side: L R, LFE
Sampling rate : 48.0 kHz
Frame rate : 31.250 FPS (1536 spf)
Compression mode : Lossy
Stream size : 295 MiB (20%)
Default : Yes
Forced : No
Deepwater Horizon 2016 HDRip x264 AC3-DR.[PRiME] torrent in Movies
Click Image To View Full Size
Deepwater Horizon 2016 HDRip x264 AC3-DR.[PRiME] torrent in Movies
Click To View Screenshot
Click To View Screenshot
Click To View Screenshot