Deepwater.Horizon.2016.1080p.WEB-DL.x265.AC3-NEBO666[PRiME]

  • Deepwater Horizon
  • Title:Deepwater Horizon
  • Released:
  • Country:United States
  • Runtime:107 min
  • Genres:Drama
  • Director:Peter Berg
  • Writer:
  • Production company:Lionsgate
  • Rated:PG-13Some material may be inappropriate for children under 13. Parents are urged to be cautious.
  • Rating imdb:7.4
  • RottenTomatoes:7.0
  • Awards:1 win.
  • Budget:$156 million
  • Keywords:disaster, oil spill, gulf of mexico, bp
  • Overview:A story set on the offshore drilling rig Deepwater Horizon, which exploded during April 2010 and created the worst oil spill in U.S. history.
  • Tagline:When faced with our darkest hour, hope is not a tactic
  • Subtitles:Opensubtitles

Technical information

  • Category:  > 
  • Size: 978.2 Mb
  • Added:
  • Seeders/Leechers: -seeders, -leechers
  • Updated: 25 days 11 hours 54 minutes ago
  • Views: 0
  • Downloads: -
  • Hash: 2114A3EAFB89AF4AD50E576E8F93957AFF761544
  • Video quality:WEB DL
  • Video resolution:1080p

Security Recommendation: Become Anonymous While Downloading Torrents

Downloading torrents is getting riskier every day.Use SpyOFF VPN
to make yourself hidden while downloading torrents. By using SpyOFF VPN , your ISP and Government Agencies will not be able to spy on you, neither would they be able to track your online activity.

Click here and BECOME ANONYMOUS before Downloading Torrents!

More details about Deepwater.Horizon.2016.1080p.WEB-DL.x265.AC3-NEBO666[PRiME]


Deepwater.Horizon.2016.1080p.WEB-DL.x265.AC3-NEBO666[PRiME]
ImDb: http://www.imdb.com/title/tt1860357
Deepwater.Horizon.2016.1080p.WEB-DL.x265.AC3-NEBO666[PRiME] in Movies
Complete name : Deepwater.Horizon.2016.1080p.WEB-DL.x265.AC3-NEBO666[PRiME].mkv
Format : Matroska
Format version : Version 2
File size : 978 MiB
Duration : 1 h 47 min
Overall bit rate : 1 275 kb/s
Encoded date : UTC 2016-12-24 17:44:34
Writing application : mkvmerge v8.5.2 ('Crosses') 32bit
Writing library : libebml v1.3.3 libmatroska v1.4.4
Video
ID : 1
Format : HEVC
Format/Info : High Efficiency Video Coding
Format profile : Main [email protected]/* */@Main
Codec ID : V_MPEGH/ISO/HEVC
Duration : 1 h 47 min
Bit rate : 1 017 kb/s
Width : 1 908 pixels
Height : 792 pixels
Display aspect ratio : 2.40:1
Frame rate mode : Constant
Frame rate : 23.976 (24000/1001) FPS
Color space : YUV
Chroma subsampling : 4:2:0
Bit depth : 10 bits
Bits/(Pixel*Frame) : 0.028
Stream size : 780 MiB (80%)
Writing library : x265 2.1 49-95451de5f12929f9:[Windows][GCC 6.2.0][64 bit] 10bit: KG7x [x265.ru]
Encoding settings : frame-threads=2 / level-idc=0 / numa-pools=4 / wpp / ctu=64 / min-cu-size=8 / max-tu-size=32 / tu-intra-depth=1 / tu-inter-depth=1 / me=1 / subme=2 / merange=57 / no-rect / no-amp / max-merge=2 / temporal-mvp / no-early-skip / rskip / rdpenalty=0 / no-tskip / no-tskip-fast / strong-intra-smoothing / no-lossless / no-cu-lossless / no-constrained-intra / no-fast-intra / open-gop / no-temporal-layers / interlace=0 / keyint=250 / min-keyint=23 / scenecut=40 / scenecut-bias=0.05 / rc-lookahead=20 / lookahead-slices=5 / bframes=4 / bframe-bias=0 / b-adapt=2 / ref=3 / limit-refs=3 / no-limit-modes / weightp / no-weightb / aq-mode=1 / qg-size=32 / aq-strength=1.00 / cbqpoffs=0 / crqpoffs=0 / rd=3 / psy-rd=2.00 / rdoq-level=0 / psy-rdoq=0.00 / log2-max-poc-lsb=8 / limit-tu=0 / no-rd-refine / signhide / deblock=0:0 / sao / no-sao-non-deblock / b-pyramid / cutree / no-intra-refresh / rc=2 / pass / bitrate=1017 / qcomp=0.60 / qpmin=0 / qpmax=69 / qpstep=4 / cplxblur=20.0 / qblur=0.5 / ipratio=1.40 / pbratio=1.30 / uhd-bd=0 / slices=1
Default : Yes
Forced : No
Audio
ID : 2
Format : AC-3
Format/Info : Audio Coding 3
Mode extension : CM (complete main)
Format settings, Endianness : Big
Codec ID : A_AC3
Duration : 1 h 47 min
Bit rate mode : Constant
Bit rate : 256 kb/s
Channel(s) : 6 channels
Channel positions : Front: L C R, Side: L R, LFE
Sampling rate : 48.0 kHz
Frame rate : 31.250 FPS (1536 spf)
Compression mode : Lossy
Stream size : 196 MiB (20%)
Title : NEBO666
Language : English
Default : Yes
Forced : No
Menu
00:00:00.000 : en:1
00:01:42.000 : en:2
00:11:00.000 : en:3
00:21:27.000 : en:4
00:31:57.000 : en:5
00:43:56.000 : en:6
00:53:48.000 : en:7
01:01:17.000 : en:8
01:11:23.000 : en:9
01:21:24.000 : en:10
01:31:38.000 : en:11
01:38:25.000 : en:12
Deepwater.Horizon.2016.1080p.WEB-DL.x265.AC3-NEBO666[PRiME] in Movies
Click Image To View Full Size
Deepwater.Horizon.2016.1080p.WEB-DL.x265.AC3-NEBO666[PRiME] in Movies
Click To View Screenshot
Click To View Screenshot
Click To View Screenshot

 Related torrents

Torrent name Subcategory Age Size
Other 3 days 754.7 Mb 0 0
Other 4 days 1.61 Gb 0 0
Other 1 week 1.68 Gb 0 0
Other 1 week 427.91 Mb 0 0
Other 1 week 678.37 Mb 0 0
Other 1 week 678.37 Mb 0 0
Other 1 week 1.24 Gb 0 0
Other 2 weeks 2 Gb 0 0
Other 2 weeks 1.35 Gb 0 0
Other 2 weeks 74.12 Mb 0 0