Deepwater.Horizon.2016.720p.BluRay.x264-WiKi[PRiME]

  • Deepwater Horizon
  • Title:Deepwater Horizon
  • Released:
  • Country:United States
  • Runtime:107 min
  • Genres:Drama
  • Director:Peter Berg
  • Writer:
  • Production company:Lionsgate
  • Rated:PG-13Some material may be inappropriate for children under 13. Parents are urged to be cautious.
  • Rating imdb:7.4
  • RottenTomatoes:7.0
  • Awards:1 win.
  • Budget:$156 million
  • Keywords:disaster, oil spill, gulf of mexico, bp
  • Overview:A story set on the offshore drilling rig Deepwater Horizon, which exploded during April 2010 and created the worst oil spill in U.S. history.
  • Tagline:When faced with our darkest hour, hope is not a tactic
  • Subtitles:Opensubtitles

Technical information

  • Category:  > 
  • Size: 1.35 Gb
  • Added:
  • Seeders/Leechers: -seeders, -leechers
  • Updated: 15 days 14 hours 51 minutes ago
  • Views: 0
  • Downloads: -
  • Hash: A22EFCB1F15F5CC13A9522329B19EF03D575E8D3
  • Video quality:BluRay
  • Video resolution:720p

Security Recommendation: Become Anonymous While Downloading Torrents

Downloading torrents is getting riskier every day.Use SpyOFF VPN
to make yourself hidden while downloading torrents. By using SpyOFF VPN , your ISP and Government Agencies will not be able to spy on you, neither would they be able to track your online activity.

Click here and BECOME ANONYMOUS before Downloading Torrents!

More details about Deepwater.Horizon.2016.720p.BluRay.x264-WiKi[PRiME]


Deepwater.Horizon.2016.720p.BluRay.x264-WiKi[PRiME]
ImDb: http://www.imdb.com/title/tt1860357
Deepwater.Horizon.2016.720p.BluRay.x264-WiKi[PRiME] in Movies
Complete name : Deepwater.Horizon.2016.720p.BluRay.x264-WiKi[PRiME].mkv
Format : Matroska
Format version : Version 2
File size : 5.30 GiB
Duration : 1 h 47 min
Overall bit rate : 7 066 kb/s
Encoded date : UTC 2017-01-02 10:26:46
Writing application : mkvmerge v5.8.0 ('No Sleep / Pillow') built on Sep 2 2012 15:37:04
Writing library : libebml v1.2.3 libmatroska v1.3.0
Video
ID : 1
Format : AVC
Format/Info : Advanced Video Codec
Format profile : [email protected]/* */
Format settings, CABAC : Yes
Format settings, ReFrames : 12 frames
Codec ID : V_MPEG4/ISO/AVC
Duration : 1 h 47 min
Bit rate : 6 429 kb/s
Width : 1 280 pixels
Height : 534 pixels
Display aspect ratio : 2.40:1
Frame rate mode : Constant
Frame rate : 23.976 (24000/1001) FPS
Color space : YUV
Chroma subsampling : 4:2:0
Bit depth : 8 bits
Scan type : Progressive
Bits/(Pixel*Frame) : 0.392
Stream size : 4.71 GiB (89%)
Writing library : x264 core 148 r2721kMod 72d53ab
Encoding settings : cabac=1 / ref=12 / deblock=1:-3:-3 / analyse=0x3:0x133 / me=umh / subme=11 / psy=1 / fade_compensate=0.00 / psy_rd=1.05:0.10 / mixed_ref=1 / me_range=32 / chroma_me=1 / trellis=2 / 8x8dct=1 / cqm=0 / deadzone=21,11 / fast_pskip=0 / chroma_qp_offset=-3 / threads=12 / lookahead_threads=2 / sliced_threads=0 / nr=0 / decimate=0 / interlaced=0 / bluray_compat=0 / constrained_intra=0 / fgo=0 / bframes=8 / b_pyramid=2 / b_adapt=2 / b_bias=0 / direct=3 / weightb=1 / open_gop=0 / weightp=2 / keyint=250 / keyint_min=23 / scenecut=40 / intra_refresh=0 / rc_lookahead=40 / rc=2pass / mbtree=0 / bitrate=6429 / ratetol=1.0 / qcomp=0.70 / qpmin=0 / qpmax=69 / qpstep=4 / cplxblur=20.0 / qblur=0.5 / vbv_maxrate=30000 / vbv_bufsize=40000 / nal_hrd=none / filler=0 / ip_ratio=1.40 / pb_ratio=1.30 / aq=3:0.80
Language : English
Default : Yes
Forced : No
Audio
ID : 2
Format : AC-3
Format/Info : Audio Coding 3
Mode extension : CM (complete main)
Format settings, Endianness : Big
Codec ID : A_AC3
Duration : 1 h 47 min
Bit rate mode : Constant
Bit rate : 640 kb/s
Channel(s) : 6 channels
Channel positions : Front: L C R, Side: L R, LFE
Sampling rate : 48.0 kHz
Frame rate : 31.250 FPS (1536 spf)
Compression mode : Lossy
Stream size : 491 MiB (9%)
Language : English
Default : Yes
Forced : No
Menu
00:00:00.000 : en:00:00:00.000
00:07:01.212 : en:00:07:01.212
00:12:32.627 : en:00:12:32.627
00:19:34.465 : en:00:19:34.465
00:27:17.219 : en:00:27:17.219
00:34:52.632 : en:00:34:52.632
00:44:29.834 : en:00:44:29.834
00:48:04.924 : en:00:48:04.924
00:53:47.599 : en:00:53:47.599
00:58:05.148 : en:00:58:05.148
01:05:44.607 : en:01:05:44.607
01:10:06.869 : en:01:10:06.869
01:16:02.933 : en:01:16:02.933
01:20:44.381 : en:01:20:44.381
01:27:37.669 : en:01:27:37.669
01:31:37.826 : en:01:31:37.826
Deepwater.Horizon.2016.720p.BluRay.x264-WiKi[PRiME] in Movies
Click Image To View Full Size
Deepwater.Horizon.2016.720p.BluRay.x264-WiKi[PRiME] in Movies
Click To View Screenshot
Click To View Screenshot
Click To View Screenshot

 Related torrents

Torrent name Subcategory Age Size
Other 3 days 754.7 Mb 0 0
Other 4 days 1.61 Gb 0 0
Other 1 week 1.68 Gb 0 0
Other 1 week 427.91 Mb 0 0
Other 1 week 678.37 Mb 0 0
Other 1 week 678.37 Mb 0 0
Other 1 week 1.24 Gb 0 0
Other 2 weeks 2 Gb 0 0
Other 2 weeks 1.35 Gb 0 0
Other 2 weeks 74.12 Mb 0 0