Deepwater.Horizon.2016.DVDRip.XviD.AC3-iFT[PRiME]

  • Deepwater Horizon
  • Title:Deepwater Horizon
  • Released:
  • Country:United States
  • Runtime:107 min
  • Genres:Drama
  • Director:Peter Berg
  • Writer:
  • Production company:Lionsgate
  • Rated:PG-13Some material may be inappropriate for children under 13. Parents are urged to be cautious.
  • Rating imdb:7.4
  • RottenTomatoes:7.0
  • Awards:1 win.
  • Budget:$156 million
  • Keywords:disaster, oil spill, gulf of mexico, bp
  • Overview:A story set on the offshore drilling rig Deepwater Horizon, which exploded during April 2010 and created the worst oil spill in U.S. history.
  • Tagline:When faced with our darkest hour, hope is not a tactic
  • Subtitles:Opensubtitles

Technical information

  • Category:  > 
  • Size: 1.9 Gb
  • Added:
  • Seeders/Leechers: -seeders, -leechers
  • Updated: 25 days 1 hours 58 minutes ago
  • Views: 0
  • Downloads: -
  • Hash: 3984E89BC404655E7A32EA9EF401B17F9D550D39
  • Video quality:DVDRip

Security Recommendation: Become Anonymous While Downloading Torrents

Downloading torrents is getting riskier every day.Use SpyOFF VPN
to make yourself hidden while downloading torrents. By using SpyOFF VPN , your ISP and Government Agencies will not be able to spy on you, neither would they be able to track your online activity.

Click here and BECOME ANONYMOUS before Downloading Torrents!

More details about Deepwater.Horizon.2016.DVDRip.XviD.AC3-iFT[PRiME]


Deepwater.Horizon.2016.DVDRip.XviD.AC3-iFT[PRiME]
ImDb: http://www.imdb.com/title/tt1860357
Deepwater.Horizon.2016.DVDRip.XviD.AC3-iFT[PRiME] in Movies
Complete name : Deepwater.Horizon.2016.DVDRip.XviD.AC3-iFT[PRiME].avi
Format : AVI
Format/Info : Audio Video Interleave
Format profile : OpenDML
Format settings : rec
File size : 1.87 GiB
Duration : 1 h 47 min
Overall bit rate : 2 499 kb/s
Writing application : AVI-Mux GUI 1.17.8.3, Feb 16 201019:42:50
Video
ID : 0
Format : MPEG-4 Visual
Format profile : Advanced [email protected]/* */
Format settings, BVOP : 2
Format settings, QPel : No
Format settings, GMC : No warppoints
Format settings, Matrix : Default (H.263)
Muxing mode : Packed bitstream
Codec ID : XVID
Codec ID/Hint : XviD
Duration : 1 h 47 min
Bit rate : 2 045 kb/s
Width : 720 pixels
Height : 304 pixels
Display aspect ratio : 2.35:1
Frame rate : 23.976 (23976/1000) FPS
Color space : YUV
Chroma subsampling : 4:2:0
Bit depth : 8 bits
Scan type : Progressive
Compression mode : Lossy
Bits/(Pixel*Frame) : 0.390
Stream size : 1.53 GiB (82%)
Writing library : XviD 73
Audio
ID : 1
Format : AC-3
Format/Info : Audio Coding 3
Mode extension : CM (complete main)
Format settings, Endianness : Big
Codec ID : 2000
Duration : 1 h 47 min
Bit rate mode : Constant
Bit rate : 448 kb/s
Channel(s) : 6 channels
Channel positions : Front: L C R, Side: L R, LFE
Sampling rate : 48.0 kHz
Frame rate : 31.250 FPS (1536 spf)
Compression mode : Lossy
Stream size : 344 MiB (18%)
Alignment : Aligned on interleaves
Interleave, duration : 64 ms (1.53 video frames)
Interleave, preload duration : 576 ms
Deepwater.Horizon.2016.DVDRip.XviD.AC3-iFT[PRiME] in Movies
Click Image To View Full Size
Deepwater.Horizon.2016.DVDRip.XviD.AC3-iFT[PRiME] in Movies
Click To View Screenshot
Click To View Screenshot
Click To View Screenshot

 Related torrents

Torrent name Subcategory Age Size
Other 10 hours 424.8 Mb 0 0
Other 1 week 754.7 Mb 0 0
Other 1 week 1.61 Gb 0 0
Other 3 weeks 2 Gb 0 0
Other 3 weeks 74.12 Mb 0 0
Other 3 weeks 1.57 Gb 0 0
Other 3 weeks 802.57 Mb 0 0
Other 4 weeks 1.9 Gb 0 0
Other 4 weeks 1.9 Gb 0 0
Other 4 weeks 1.5 Gb 0 0