Deepwater.Horizon.2016.FRENCH.BDRip.x264-PRiDEHD[PRiME]

  • Deepwater Horizon
  • Title:Deepwater Horizon
  • Released:
  • Country:United States
  • Runtime:107 min
  • Genres:Drama
  • Director:Peter Berg
  • Writer:
  • Production company:Lionsgate
  • Rated:PG-13Some material may be inappropriate for children under 13. Parents are urged to be cautious.
  • Rating imdb:7.4
  • RottenTomatoes:7.0
  • Awards:1 win.
  • Budget:$156 million
  • Keywords:disaster, oil spill, gulf of mexico, bp
  • Overview:A story set on the offshore drilling rig Deepwater Horizon, which exploded during April 2010 and created the worst oil spill in U.S. history.
  • Tagline:When faced with our darkest hour, hope is not a tactic
  • Subtitles:Opensubtitles

Technical information

  • Category:  > 
  • Size: 678.37 Mb
  • Added:
  • Seeders/Leechers: -seeders, -leechers
  • Updated: 13 days 3 hours 47 minutes ago
  • Views: 0
  • Downloads: -
  • Hash: B9543A49EA9D236621515C5155CDBA94BEAB58C2
  • Video quality:BDRip

Security Recommendation: Become Anonymous While Downloading Torrents

Downloading torrents is getting riskier every day.Use SpyOFF VPN
to make yourself hidden while downloading torrents. By using SpyOFF VPN , your ISP and Government Agencies will not be able to spy on you, neither would they be able to track your online activity.

Click here and BECOME ANONYMOUS before Downloading Torrents!

More details about Deepwater.Horizon.2016.FRENCH.BDRip.x264-PRiDEHD[PRiME]


Deepwater.Horizon.2016.FRENCH.BDRip.x264-PRiDEHD[PRiME]
ImDb: http://www.imdb.com/title/tt1860357
Deepwater.Horizon.2016.FRENCH.BDRip.x264-PRiDEHD[PRiME] in Movies
Complete name : phd-deepwater.sd[PRiME].mkv
Format : Matroska
Format version : Version 4 / Version 2
File size : 678 MiB
Duration : 1 h 47 min
Overall bit rate : 884 kb/s
Encoded date : UTC 2017-01-10 18:32:43
Writing application : mkvmerge v9.6.0 ('Slave To Your Mind') 64bit
Writing library : libebml v1.3.4 libmatroska v1.4.5
Video
ID : 1
Format : AVC
Format/Info : Advanced Video Codec
Format profile : [email protected]/* */
Format settings, CABAC : Yes
Format settings, ReFrames : 5 frames
Codec ID : V_MPEG4/ISO/AVC
Duration : 1 h 47 min
Bit rate : 762 kb/s
Width : 720 pixels
Height : 300 pixels
Display aspect ratio : 2.40:1
Frame rate mode : Constant
Frame rate : 23.976 (24000/1001) FPS
Color space : YUV
Chroma subsampling : 4:2:0
Bit depth : 8 bits
Scan type : Progressive
Bits/(Pixel*Frame) : 0.147
Stream size : 585 MiB (86%)
Writing library : x264 core 148 r2744 b97ae06
Encoding settings : cabac=1 / ref=5 / deblock=1:-2:-2 / analyse=0x3:0x113 / me=hex / subme=8 / psy=1 / psy_rd=1.00:0.00 / mixed_ref=1 / me_range=16 / chroma_me=1 / trellis=2 / 8x8dct=1 / cqm=0 / deadzone=21,11 / fast_pskip=1 / chroma_qp_offset=-2 / threads=9 / lookahead_threads=1 / sliced_threads=0 / nr=0 / decimate=1 / interlaced=0 / bluray_compat=0 / constrained_intra=0 / bframes=3 / b_pyramid=2 / b_adapt=1 / b_bias=0 / direct=3 / weightb=1 / open_gop=0 / weightp=2 / keyint=250 / keyint_min=23 / scenecut=40 / intra_refresh=0 / rc_lookahead=50 / rc=crf / mbtree=1 / crf=19.0 / qcomp=0.60 / qpmin=0 / qpmax=69 / qpstep=4 / ip_ratio=1.40 / aq=1:0.70
Language : English
Default : Yes
Forced : No
Color range : Limited
Matrix coefficients : BT.709
Audio
ID : 2
Format : AAC
Format/Info : Advanced Audio Codec
Format profile : LC
Codec ID : A_AAC
Duration : 1 h 47 min
Bit rate : 120 kb/s
Channel(s) : 2 channels
Channel positions : Front: L R
Sampling rate : 48.0 kHz
Frame rate : 46.875 FPS (1024 spf)
Compression mode : Lossy
Delay relative to video : 9 ms
Stream size : 92.0 MiB (14%)
Title : French AAC
Language : French
Default : Yes
Forced : No
Text
ID : 3
Format : UTF-8
Codec ID : S_TEXT/UTF8
Codec ID/Info : UTF-8 Plain Text
Duration : 1 h 36 min
Bit rate : 1 b/s
Count of elements : 31
Stream size : 1.32 KiB (0%)
Title : Forced
Language : French
Default : Yes
Forced : No
Menu
00:00:00.000 : en:00:00:00.000
00:07:01.212 : en:00:07:01.212
00:12:32.627 : en:00:12:32.627
00:19:34.465 : en:00:19:34.465
00:27:17.219 : en:00:27:17.219
00:34:52.632 : en:00:34:52.632
00:44:29.834 : en:00:44:29.834
00:48:04.924 : en:00:48:04.924
00:53:47.599 : en:00:53:47.599
00:58:05.148 : en:00:58:05.148
01:05:44.607 : en:01:05:44.607
01:10:06.869 : en:01:10:06.869
01:16:02.933 : en:01:16:02.933
01:20:44.381 : en:01:20:44.381
01:27:37.669 : en:01:27:37.669
01:31:37.826 : en:01:31:37.826
Deepwater.Horizon.2016.FRENCH.BDRip.x264-PRiDEHD[PRiME] in Movies
Click Image To View Full Size
Deepwater.Horizon.2016.FRENCH.BDRip.x264-PRiDEHD[PRiME] in Movies
Click To View Screenshot
Click To View Screenshot
Click To View Screenshot

 Related torrents

Torrent name Subcategory Age Size
Other 9 hours 424.8 Mb 0 0
Other 1 week 754.7 Mb 0 0
Other 1 week 1.61 Gb 0 0
Other 3 weeks 2 Gb 0 0
Other 3 weeks 74.12 Mb 0 0
Other 3 weeks 1.57 Gb 0 0
Other 3 weeks 802.57 Mb 0 0
Other 4 weeks 1.9 Gb 0 0
Other 4 weeks 1.9 Gb 0 0
Other 4 weeks 1.5 Gb 0 0