Hickey.2017.HDRip.XviD.AC3-iFT[PRiME]

  • Title:Hickey
  • Released:
  • Country:United States
  • Runtime:85 min
  • Genres:Comedy
  • Director:Alex Grossman
  • Writer:
  • Production company:N/A
  • Keywords:insecurity
  • Overview:Brilliant but insecure, young Ryan has 24 hours to save the store he hates in order to win the heart of the girl he loves.
  • Tagline:To get the girl he loves, he must save the store he hates.
  • Subtitles:Opensubtitles

Technical information

  • Category:  > 
  • Size: 1.33 Gb
  • Added:
  • Seeders/Leechers: -seeders, -leechers
  • Updated: 2 months 14 days 5 hours ago
  • Views: 0
  • Downloads: -
  • Hash: 66A75CB6536D0FE70BE0BFEADD5AE7D39212DD48
  • Video quality:HDRip

Security Recommendation: Become Anonymous While Downloading Torrents

Downloading torrents is getting riskier every day.Use SpyOFF VPN
to make yourself hidden while downloading torrents. By using SpyOFF VPN , your ISP and Government Agencies will not be able to spy on you, neither would they be able to track your online activity.

Click here and BECOME ANONYMOUS before Downloading Torrents!

More details about Hickey.2017.HDRip.XviD.AC3-iFT[PRiME]


Hickey.2017.HDRip.XviD.AC3-iFT[PRiME]
ImDb: http://www.imdb.com/title/tt2122355
Hickey.2017.HDRip.XviD.AC3-iFT[PRiME] in Movies
Complete name : Hickey.2017.HDRip.XviD.AC3-iFT[PRiME].avi
Format : AVI
Format/Info : Audio Video Interleave
Format profile : OpenDML
Format settings : rec
File size : 1.31 GiB
Duration : 1 h 20 min
Overall bit rate : 2 336 kb/s
Writing application : AVI-Mux GUI 1.17.8.3, Feb 16 201019:42:50
Video
ID : 0
Format : MPEG-4 Visual
Format profile : Advanced [email protected]/* */
Format settings, BVOP : 2
Format settings, QPel : No
Format settings, GMC : No warppoints
Format settings, Matrix : Default (H.263)
Muxing mode : Packed bitstream
Codec ID : XVID
Codec ID/Hint : XviD
Duration : 1 h 20 min
Bit rate : 1 946 kb/s
Width : 720 pixels
Height : 304 pixels
Display aspect ratio : 2.35:1
Frame rate : 23.976 (23976/1000) FPS
Color space : YUV
Chroma subsampling : 4:2:0
Bit depth : 8 bits
Scan type : Progressive
Compression mode : Lossy
Bits/(Pixel*Frame) : 0.371
Stream size : 1.09 GiB (83%)
Writing library : XviD 73
Audio
ID : 1
Format : AC-3
Format/Info : Audio Coding 3
Mode extension : CM (complete main)
Format settings, Endianness : Big
Codec ID : 2000
Duration : 1 h 20 min
Bit rate mode : Constant
Bit rate : 384 kb/s
Channel(s) : 6 channels
Channel positions : Front: L C R, Side: L R, LFE
Sampling rate : 48.0 kHz
Frame rate : 31.250 FPS (1536 spf)
Compression mode : Lossy
Stream size : 221 MiB (16%)
Alignment : Aligned on interleaves
Interleave, duration : 64 ms (1.53 video frames)
Interleave, preload duration : 192 ms
Title : Hickey.track_2
Hickey.2017.HDRip.XviD.AC3-iFT[PRiME] in Movies
Click Image To View Full Size
Hickey.2017.HDRip.XviD.AC3-iFT[PRiME] in Movies
Click To View Screenshot
Click To View Screenshot
Click To View Screenshot

 Related torrents

Torrent name Subcategory Age Size
Other 2 months 1.2 Gb 0 0
Other 2 months 1.33 Gb 0 0
Other 2 months 629.94 Mb 0 0
Other 2 months 705.73 Mb 0 0
Other 2 months 575.87 Mb 0 0
Other 2 months 651.46 Mb 0 0
Other 2 months 324.74 Mb 0 0
Other 2 months 1.4 Gb 0 0
Other 2 months 1.4 Gb 0 0
Other 2 months 1.4 Gb 0 0