Rogue.One.A.Star.Wars.Story.2016.HDCAM.x264-VAiN[PRiME]

  • Rogue One: A Star Wars Story
  • Title:Rogue One: A Star Wars Story
  • Released:
  • Country:United States
  • Runtime:134 min
  • Genres:Action, Adventure, Fantasy, Science Fiction, Thriller
  • Director:Gareth Edwards
  • Writer:
  • Production company:N/A
  • Rated:PG-13Some material may be inappropriate for children under 13. Parents are urged to be cautious.
  • Rating imdb:7.7
  • Awards:1 nomination.
  • Budget:$200 million
  • Keywords:rebel, death star, mission, rebellion, space opera
  • Overview:A rogue band of resistance fighters unite for a mission to steal the Death Star plans and bring a new hope to the galaxy.
  • Tagline:A Rebellion Built on Hope
  • Subtitles:Opensubtitles

Technical information

  • Category:  > 
  • Size: 1.55 Gb
  • Added:
  • Seeders/Leechers: 0seeders, 0leechers
  • Updated: 26 days 16 hours 21 minutes ago
  • Views: 0
  • Downloads: 0
  • Hash: D6850710AA915287C73548B06D73FA5F35ED13A7

Security Recommendation: Become Anonymous While Downloading Torrents

Downloading torrents is getting riskier every day.Use SpyOFF VPN
to make yourself hidden while downloading torrents. By using SpyOFF VPN , your ISP and Government Agencies will not be able to spy on you, neither would they be able to track your online activity.

Click here and BECOME ANONYMOUS before Downloading Torrents!

More details about Rogue.One.A.Star.Wars.Story.2016.HDCAM.x264-VAiN[PRiME]


Rogue.One.A.Star.Wars.Story.2016.HDCAM.x264-VAiN[PRiME]
ImDb: http://www.imdb.com/title/tt3748528
Rogue.One.A.Star.Wars.Story.2016.HDCAM.x264-VAiN[PRiME] in Movies
Complete name : Rogue.One.A.Star.Wars.Story.2016.HDCAM.x264-VAiN[PRiME].mkv
Format : Matroska
Format version : Version 4 / Version 2
File size : 1.54 GiB
Duration : 2 h 5 min
Overall bit rate : 1 759 kb/s
Encoded date : UTC 2016-12-17 23:12:00
Writing application : mkvmerge v9.6.0 ('Slave To Your Mind') 32bit
Writing library : libebml v1.3.4 libmatroska v1.4.5
Video
ID : 1
Format : AVC
Format/Info : Advanced Video Codec
Format profile : High [email protected]/* */
Format settings, CABAC : Yes
Format settings, ReFrames : 4 frames
Codec ID : V_MPEG4/ISO/AVC
Duration : 2 h 5 min
Bit rate : 1 565 kb/s
Width : 720 pixels
Height : 288 pixels
Display aspect ratio : 2.500
Frame rate mode : Constant
Frame rate : 29.970 (30000/1001) FPS
Color space : YUV
Chroma subsampling : 4:2:0
Bit depth : 10 bits
Scan type : Progressive
Bits/(Pixel*Frame) : 0.252
Stream size : 1.37 GiB (89%)
Writing library : x264 core 148 r2744 b97ae06
Encoding settings : cabac=1 / ref=3 / deblock=1:-1:-1 / analyse=0x3:0x133 / me=hex / subme=7 / psy=1 / psy_rd=1.00:0.15 / mixed_ref=1 / me_range=16 / chroma_me=1 / trellis=1 / 8x8dct=1 / cqm=0 / deadzone=21,11 / fast_pskip=1 / chroma_qp_offset=-3 / threads=9 / lookahead_threads=1 / sliced_threads=0 / nr=0 / decimate=1 / interlaced=0 / bluray_compat=0 / constrained_intra=0 / bframes=3 / b_pyramid=2 / b_adapt=2 / b_bias=0 / direct=1 / weightb=1 / open_gop=0 / weightp=2 / keyint=300 / keyint_min=29 / scenecut=40 / intra_refresh=0 / rc_lookahead=40 / rc=2pass / mbtree=1 / bitrate=1565 / ratetol=1.0 / qcomp=0.60 / qpmin=0 / qpmax=81 / qpstep=4 / cplxblur=20.0 / qblur=0.5 / ip_ratio=1.40 / aq=1:1.00
Default : Yes
Forced : No
Audio
ID : 2
Format : MPEG Audio
Format version : Version 1
Format profile : Layer 3
Mode : Joint stereo
Mode extension : MS Stereo
Codec ID : A_MPEG/L3
Codec ID/Hint : MP3
Duration : 2 h 5 min
Bit rate mode : Constant
Bit rate : 192 kb/s
Channel(s) : 2 channels
Sampling rate : 44.1 kHz
Frame rate : 38.281 FPS (1152 spf)
Compression mode : Lossy
Stream size : 172 MiB (11%)
Default : Yes
Forced : No
Rogue.One.A.Star.Wars.Story.2016.HDCAM.x264-VAiN[PRiME] in Movies
Click Image To View Full Size
Rogue.One.A.Star.Wars.Story.2016.HDCAM.x264-VAiN[PRiME] in Movies
Click To View Screenshot
Click To View Screenshot
Click To View Screenshot

 Related torrents

Torrent name Subcategory Age Size
Other 2 weeks 1.7 Gb 0 0
Other 2 weeks 807.69 Mb 0 0
Other 3 weeks 700.72 Mb 0 0
Other 4 weeks 1.5 Gb 0 0
Other 1 month 1.55 Gb 0 0