Sold.2016.HDRip.XviD.AC3-iFT[PRiME]

  • Sold
  • Title:Sold
  • Released:
  • Country:
  • Runtime:97 min
  • Genres:Drama
  • Director:Jeffrey D. Brown
  • Writer:
  • Production company:Jaya International
  • Rated:PG-13Some material may be inappropriate for children under 13. Parents are urged to be cautious.
  • Rating imdb:7.5
  • RottenTomatoes:6.3
  • Awards:2 wins & 1 nomination.
  • Overview:Lakshmi is a thirteen-year-old girl who lives with her family in a small hut on a mountain in Nepal. When the Himalayan monsoons wash away all that remains of the family's crops, Lakshmi's father says she must leave home and take a job to support her family. He introduces her to a glamorous stranger who tells her she will find her a job as a maid in the city. Glad to be able to help, Lakshmi journeys to India and arrives at "Happiness House" full of hope. But she soon learns the unthinkable truth: she has been sold into prostitution...
  • Subtitles:Opensubtitles

Technical information

  • Category:  > 
  • Size: 1.56 Gb
  • Added:
  • Seeders/Leechers: -seeders, -leechers
  • Updated: 5 days 19 hours 48 minutes ago
  • Views: 0
  • Downloads: -
  • Hash: E95D50BB33BC8262F9302EE1905293F569D46268
  • Video quality:HDRip

Security Recommendation: Become Anonymous While Downloading Torrents

Downloading torrents is getting riskier every day.Use SpyOFF VPN
to make yourself hidden while downloading torrents. By using SpyOFF VPN , your ISP and Government Agencies will not be able to spy on you, neither would they be able to track your online activity.

Click here and BECOME ANONYMOUS before Downloading Torrents!

More details about Sold.2016.HDRip.XviD.AC3-iFT[PRiME]


Sold.2016.HDRip.XviD.AC3-iFT[PRiME]
ImDb: http://www.imdb.com/title/tt1411956
Sold.2016.HDRip.XviD.AC3-iFT[PRiME] in Movies
Complete name : Sold.2016.HDRip.XviD.AC3-iFT[PRiME].avi
Format : AVI
Format/Info : Audio Video Interleave
Format profile : OpenDML
Format settings : rec
File size : 1.54 GiB
Duration : 1 h 34 min
Overall bit rate : 2 334 kb/s
Writing application : AVI-Mux GUI 1.17.8.3, Feb 16 201019:42:50
Video
ID : 0
Format : MPEG-4 Visual
Format profile : Advanced [email protected]/* */
Format settings, BVOP : 2
Format settings, QPel : No
Format settings, GMC : No warppoints
Format settings, Matrix : Default (H.263)
Muxing mode : Packed bitstream
Codec ID : XVID
Codec ID/Hint : XviD
Duration : 1 h 34 min
Bit rate : 1 944 kb/s
Width : 720 pixels
Height : 304 pixels
Display aspect ratio : 2.35:1
Frame rate : 23.976 (23976/1000) FPS
Color space : YUV
Chroma subsampling : 4:2:0
Bit depth : 8 bits
Scan type : Progressive
Compression mode : Lossy
Bits/(Pixel*Frame) : 0.370
Stream size : 1.28 GiB (83%)
Writing library : XviD 73
Audio
ID : 1
Format : AC-3
Format/Info : Audio Coding 3
Mode extension : CM (complete main)
Format settings, Endianness : Big
Codec ID : 2000
Duration : 1 h 34 min
Bit rate mode : Constant
Bit rate : 384 kb/s
Channel(s) : 6 channels
Channel positions : Front: L C R, Side: L R, LFE
Sampling rate : 48.0 kHz
Frame rate : 31.250 FPS (1536 spf)
Compression mode : Lossy
Stream size : 260 MiB (16%)
Alignment : Aligned on interleaves
Interleave, duration : 64 ms (1.53 video frames)
Interleave, preload duration : 192 ms
Title : Sold.track_2
Sold.2016.HDRip.XviD.AC3-iFT[PRiME] in Movies
Click Image To View Full Size
Sold.2016.HDRip.XviD.AC3-iFT[PRiME] in Movies
Click To View Screenshot
Click To View Screenshot
Click To View Screenshot

 Related torrents

Torrent name Subcategory Age Size
Other 5 days 1.41 Gb 0 0
Other 5 days 739.36 Mb 0 0
Other 6 days 1.56 Gb 0 0
Other 6 days 1.56 Gb 0 0
Other 6 days 759.09 Mb 0 0
Other 6 days 706.97 Mb 0 0
Other 6 days 705.53 Mb 0 0
Other 6 days 705.53 Mb 0 0
Other 7 days 356.31 Mb 0 0
Other 7 days 675.4 Mb 0 0