The.Disappointments.Room.2016.HDRip.XviD.AC3-iFT[PRiME]

  • Title:The Disappointments Room
  • Released:
  • Country:United States
  • Runtime:92 min
  • Genres:Drama, Thriller
  • Director:D.J. Caruso
  • Writer:
  • Production company:Relativity Studios
  • Rated:RUnder 17 requires accompanying parent or adult guardian. Contains some adult material.
  • Rating imdb:4.3
  • RottenTomatoes:2.9
  • Budget:$15 million
  • Keywords:son, attic, mother son relationship
  • Overview:A mother and her young son release unimaginable horrors from the attic of their rural dream home.
  • Tagline:Some mysteries should not be unlocked
  • Subtitles:Opensubtitles

Technical information

  • Category:  > 
  • Size: 1.39 Gb
  • Added:
  • Seeders/Leechers: -seeders, -leechers
  • Updated: 1 months 10 days 4 hours ago
  • Views: 0
  • Downloads: -
  • Hash: 89DD2F8B46FCE54C67FB9D67BF260260D06395B1
  • Video quality:HDRip

Security Recommendation: Become Anonymous While Downloading Torrents

Downloading torrents is getting riskier every day.Use SpyOFF VPN
to make yourself hidden while downloading torrents. By using SpyOFF VPN , your ISP and Government Agencies will not be able to spy on you, neither would they be able to track your online activity.

Click here and BECOME ANONYMOUS before Downloading Torrents!

More details about The.Disappointments.Room.2016.HDRip.XviD.AC3-iFT[PRiME]


The.Disappointments.Room.2016.HDRip.XviD.AC3-iFT[PRiME]
ImDb: http://www.imdb.com/title/tt2364897
The.Disappointments.Room.2016.HDRip.XviD.AC3-iFT[PRiME] in Movies
Complete name : The.Disappointments.Room.2016.HDRip.XviD.AC3-iFT[PRiME].avi
Format : AVI
Format/Info : Audio Video Interleave
Format profile : OpenDML
Format settings : rec
File size : 1.37 GiB
Duration : 1 h 25 min
Overall bit rate : 2 310 kb/s
Writing application : AVI-Mux GUI 1.17.8.3, Feb 16 201019:42:50
Video
ID : 0
Format : MPEG-4 Visual
Format profile : Advanced [email protected]/* */
Format settings, BVOP : 2
Format settings, QPel : No
Format settings, GMC : No warppoints
Format settings, Matrix : Default (H.263)
Muxing mode : Packed bitstream
Codec ID : XVID
Codec ID/Hint : XviD
Duration : 1 h 25 min
Bit rate : 1 920 kb/s
Width : 720 pixels
Height : 304 pixels
Display aspect ratio : 2.35:1
Frame rate : 23.976 (23976/1000) FPS
Color space : YUV
Chroma subsampling : 4:2:0
Bit depth : 8 bits
Scan type : Progressive
Compression mode : Lossy
Bits/(Pixel*Frame) : 0.366
Stream size : 1.14 GiB (83%)
Writing library : XviD 73
Audio
ID : 1
Format : AC-3
Format/Info : Audio Coding 3
Mode extension : CM (complete main)
Format settings, Endianness : Big
Codec ID : 2000
Duration : 1 h 25 min
Bit rate mode : Constant
Bit rate : 384 kb/s
Channel(s) : 6 channels
Channel positions : Front: L C R, Side: L R, LFE
Sampling rate : 48.0 kHz
Frame rate : 31.250 FPS (1536 spf)
Compression mode : Lossy
Stream size : 234 MiB (17%)
Alignment : Aligned on interleaves
Interleave, duration : 64 ms (1.53 video frames)
Interleave, preload duration : 192 ms
Title : The.track_2
The.Disappointments.Room.2016.HDRip.XviD.AC3-iFT[PRiME] in Movies
Click Image To View Full Size
The.Disappointments.Room.2016.HDRip.XviD.AC3-iFT[PRiME] in Movies
Click To View Screenshot
Click To View Screenshot
Click To View Screenshot

 Related torrents

Torrent name Subcategory Age Size
Other 1 month 666.43 Mb 0 0
Other 1 month 1.27 Gb 0 0
Other 1 month 706.21 Mb 0 0
Other 1 month 1.39 Gb 0 0
Other 1 month 637.26 Mb 0 0
Other 1 month 1.2 Gb 0 0
Other 1 month 650.9 Mb 0 0
Other 1 month 606.87 Mb 0 0
Other 1 month 676.48 Mb 0 0
Movies - Other 2 months 694.93 Mb 0 0