The.Distinguished.Citizen.2016.1080p.BRRip.x264.AC3.HORiZON-ArtSu...

  • Title:The Distinguished Citizen
  • Released:
  • Country:Argentina, Spain
  • Runtime:118 min
  • Genres:Comedy, Drama
  • Director:Gastón Duprat, Mariano Cohn
  • Writer:
  • Production company:N/A
  • Rating imdb:7.6
  • Awards:12 wins & 13 nominations.
  • Overview:After refusing big and prestigious awards all over the world, Mr. Mantovani, Literature Nobel Prize winner, accepts an invitation to visit his hometown in Argentina, which has been the inspiration for all of his books. It turns out that accepting this invitation is the worse idea of his life. Expect the unexpected when you have used real people as characters in your novels!
  • Subtitles:Opensubtitles

Technical information

  • Category:  > 
  • Size: 1.93 Gb
  • Added:
  • Seeders/Leechers: -seeders, -leechers
  • Updated: 11 days 9 hours 36 minutes ago
  • Views: 0
  • Downloads: -
  • Hash: 3B0C09B276E371D48E4938078CAAF74E4A8C2604
  • Video quality:BRRip
  • Video resolution:1080p

Security Recommendation: Become Anonymous While Downloading Torrents

Downloading torrents is getting riskier every day.Use SpyOFF VPN
to make yourself hidden while downloading torrents. By using SpyOFF VPN , your ISP and Government Agencies will not be able to spy on you, neither would they be able to track your online activity.

Click here and BECOME ANONYMOUS before Downloading Torrents!

More details about The.Distinguished.Citizen.2016.1080p.BRRip.x264.AC3.HORiZON-ArtSu...

Release: The.Distinguished.Citizen.2016.1080p.BRRip.x264.AC3.HORiZON-ArtSubs
The.Distinguished.Citizen.2016.1080p.BRRip.x264.AC3.HORiZON-ArtSu... in Movies
IMDB: http://www.imdb.com/title/tt4562518/
Subtitle: English
Plot: After refusing big and prestigious awards all over the world, Mr. Mantovani, Literature Nobel Prize winner, accepts an invitation to visit his hometown in Argentina, which has been the inspiration for all of his books. It turns out that accepting this invitation is the worse idea of his life. Expect the unexpected when you have used real people as characters in your novels!
Complete name : The.Distinguished.Citizen.2016.1080p.BRRip.x264.AC3.HORiZON-ArtSubs
Format : Matroska
Format version : Version 2
File size : 1.93 GiB
Duration : 1h 57mn
Overall bit rate : 2 350 Kbps
Writing application : HandBrake 0.9.5
Writing library : libmkv 0.6.4.1
Video
ID : 1
Format : AVC
Format/Info : Advanced Video Codec
Format profile : [email protected]/* */
Format settings, CABAC : Yes
Format settings, ReFrames : 4 frames
Codec ID : V_MPEG4/ISO/AVC
Duration : 1h 57mn
Bit rate : 1 733 Kbps
Width : 1 920 pixels
Height : 1 040 pixels
Display aspect ratio : 1.85:1
Original display aspect ratio : 1.85:1
Frame rate mode : Constant
Frame rate : 24.000 fps
Color space : YUV
Chroma subsampling : 4:2:0
Bit depth : 8 bits
Scan type : Progressive
Bits/(Pixel*Frame) : 0.036
Stream size : 1.37 GiB (71%)
Writing library : x264 core 112
Language : English
Default : Yes
Forced : No
Audio
ID : 2
Format : AC-3
Format/Info : Audio Coding 3
Mode extension : CM (complete main)
Format settings, Endianness : Big
Codec ID : A_AC3
Duration : 1h 57mn
Bit rate mode : Constant
Bit rate : 640 Kbps
Channel count : 6 channels
Channel positions : Front: L C R, Side: L R, LFE
Sampling rate : 48.0 KHz
Bit depth : 16 bits
Compression mode : Lossy
Stream size : 539 MiB (27%)
Language : Spanish
Default : Yes
Forced : No
Text
ID : 3
Format : UTF-8
Codec ID : S_TEXT/UTF8
Codec ID/Info : UTF-8 Plain Text
Language : English
Default : No
Forced : No
SCREENSHOTS:
The.Distinguished.Citizen.2016.1080p.BRRip.x264.AC3.HORiZON-ArtSu... in Movies
The.Distinguished.Citizen.2016.1080p.BRRip.x264.AC3.HORiZON-ArtSu... in Movies
The.Distinguished.Citizen.2016.1080p.BRRip.x264.AC3.HORiZON-ArtSu... in Movies
The.Distinguished.Citizen.2016.1080p.BRRip.x264.AC3.HORiZON-ArtSu... in Movies
The.Distinguished.Citizen.2016.1080p.BRRip.x264.AC3.HORiZON-ArtSu... in Movies
The.Distinguished.Citizen.2016.1080p.BRRip.x264.AC3.HORiZON-ArtSu... in Movies
The.Distinguished.Citizen.2016.1080p.BRRip.x264.AC3.HORiZON-ArtSu... in Movies
The.Distinguished.Citizen.2016.1080p.BRRip.x264.AC3.HORiZON-ArtSu... in Movies