The.Leveling.2016.720p.BluRay.x264-x0r

Technical information

  • Category:  > 
  • Size: 1.76 Gb
  • Added:
  • Seeders/Leechers: -seeders, -leechers
  • Updated: 11 days 9 hours 24 minutes ago
  • Views: 0
  • Downloads: -
  • Hash: C964803F2DD1F6DF220D1D49B0581C9E8BDC646C
  • Video quality:BluRay
  • Video resolution:720p

Security Recommendation: Become Anonymous While Downloading Torrents

Downloading torrents is getting riskier every day.Use SpyOFF VPN
to make yourself hidden while downloading torrents. By using SpyOFF VPN , your ISP and Government Agencies will not be able to spy on you, neither would they be able to track your online activity.

Click here and BECOME ANONYMOUS before Downloading Torrents!

More details about The.Leveling.2016.720p.BluRay.x264-x0r

The.Leveling.2016.720p.BluRay.x264-x0r
ImDb: http://www.imdb.com/title/tt5810626
The.Leveling.2016.720p.BluRay.x264-x0r in Movies
Complete name : The.Leveling.2016.720p.BluRay.x264-x0r.mkv
Format : Matroska
Format version : Version 4 / Version 2
File size : 1.76 GiB
Duration : 1 h 23 min
Overall bit rate : 3 009 kb/s
Movie name : The.Leveling.2016.720p.BluRay.x264-x0r
Encoded date : UTC 2017-07-17 16:49:14
Writing application : mkvmerge v7.7.0 ('Six Voices') 64bit built on Mar 1 2015 01:50:05
Writing library : libebml v1.3.1 libmatroska v1.4.2
Video
ID : 1
Format : AVC
Format/Info : Advanced Video Codec
Format profile : [email protected]/* */
Format settings, CABAC : Yes
Format settings, ReFrames : 8 frames
Codec ID : V_MPEG4/ISO/AVC
Duration : 1 h 23 min
Bit rate : 2 560 kb/s
Width : 1 280 pixels
Height : 720 pixels
Display aspect ratio : 16:9
Frame rate mode : Variable
Frame rate : 24.000 FPS
Color space : YUV
Chroma subsampling : 4:2:0
Bit depth : 8 bits
Scan type : Progressive
Bits/(Pixel*Frame) : 0.116
Stream size : 1.49 GiB (85%)
Writing library : x264 core 142 r2389 956c8d8
Encoding settings : cabac=1 / ref=8 / deblock=1:-2:-2 / analyse=0x3:0x113 / me=umh / subme=9 / psy=1 / psy_rd=1.00:0.25 / mixed_ref=0 / me_range=32 / chroma_me=1 / trellis=2 / 8x8dct=1 / cqm=0 / deadzone=6,6 / fast_pskip=0 / chroma_qp_offset=-4 / threads=12 / lookahead_threads=1 / sliced_threads=0 / nr=0 / decimate=0 / interlaced=0 / bluray_compat=0 / constrained_intra=0 / bframes=4 / b_pyramid=2 / b_adapt=2 / b_bias=0 / direct=3 / weightb=1 / open_gop=0 / weightp=2 / keyint=240 / keyint_min=24 / scenecut=40 / intra_refresh=0 / rc_lookahead=100 / rc=2pass / mbtree=1 / bitrate=2560 / ratetol=1.0 / qcomp=0.00 / qpmin=0 / qpmax=69 / qpstep=4 / cplxblur=20.0 / qblur=0.5 / vbv_maxrate=20000 / vbv_bufsize=25000 / nal_hrd=none / filler=0 / ip_ratio=1.10 / aq=1:1.00
Language : English
Default : Yes
Forced : No
Color range : Limited
Color primaries : BT.709
Transfer characteristics : BT.709
Matrix coefficients : BT.709
Audio
ID : 2
Format : AC-3
Format/Info : Audio Coding 3
Format settings, Endianness : Big
Codec ID : A_AC3
Duration : 1 h 23 min
Bit rate mode : Constant
Bit rate : 448 kb/s
Channel(s) : 6 channels
Channel positions : Front: L C R, Side: L R, LFE
Sampling rate : 48.0 kHz
Frame rate : 31.250 FPS (1536 spf)
Bit depth : 16 bits
Compression mode : Lossy
Delay relative to video : -5 ms
Stream size : 268 MiB (15%)
Title : Surround
Language : English
Service kind : Complete Main
Default : Yes
Forced : No
Text
ID : 3
Format : UTF-8
Codec ID : S_TEXT/UTF8
Codec ID/Info : UTF-8 Plain Text
Duration : 1 h 18 min
Bit rate : 34 b/s
Count of elements : 681
Stream size : 19.5 KiB (0%)
Language : English
Default : Yes
Forced : No
Menu
00:00:00.000 : :Chapter 1
00:08:50.992 : :Chapter 2
00:12:43.909 : :Chapter 3
00:19:12.826 : :Chapter 4
00:27:07.034 : :Chapter 5
00:35:48.242 : :Chapter 6
00:42:52.701 : :Chapter 7
00:49:35.451 : :Chapter 8
00:56:20.576 : :Chapter 9
01:05:24.784 : :Chapter 10
01:11:43.534 : :Chapter 11
01:19:53.701 : :Chapter 12
The.Leveling.2016.720p.BluRay.x264-x0r in Movies
The.Leveling.2016.720p.BluRay.x264-x0r in Movies
Click To View Screenshot
Click To View Screenshot
Click To View Screenshot

 Related torrents

Torrent name Subcategory Age Size
Other 2 weeks 1.76 Gb 0 0
Other 2 weeks 1.34 Gb 0 0
Other 2 months 1.41 Gb 0 0
Other 2 months 1.41 Gb 0 0
Other 2 months 711.92 Mb 0 0
Other 2 months 422.93 Mb 0 0
Other 2 months 378.95 Mb 0 0
Other 2 months 1.6 Gb 0 0
Other 2 months 1.38 Gb 0 0
Other 2 months 1.38 Gb 0 0