USS.Indianapolis.Men.of.Courage.2016.720p.BluRay.DTS.x264-HDS[PRi...

  • USS Indianapolis: Men of Courage
  • Title:USS Indianapolis: Men of Courage
  • Released:
  • Country:United States
  • Genres:Action, War
  • Director:Mario Van Peebles
  • Writer:
  • Production company:Saban Films
  • Rated:RUnder 17 requires accompanying parent or adult guardian. Contains some adult material.
  • Rating imdb:7.4
  • Overview:Action - The harrowing true story of the crew of the USS Indianapolis, who were stranded in the Philippine Sea for five days after delivering the atomic weapons that would eventually end WWII. As they awaited rescue, they endured extreme thirst, hunger, and relentless shark attacks. - Nicolas Cage, Matt Lanter, Thomas Jane
  • Subtitles:Opensubtitles

Technical information

  • Category:  > 
  • Size: 990.66 Mb
  • Added:
  • Seeders/Leechers: -seeders, -leechers
  • Updated: 12 days 5 hours 58 minutes ago
  • Views: 0
  • Downloads: -
  • Hash: 21F702467DD9F9ECD3D54F19E79AB747ABC52AE4
  • Video quality:BluRay
  • Video resolution:720p

Security Recommendation: Become Anonymous While Downloading Torrents

Downloading torrents is getting riskier every day.Use SpyOFF VPN
to make yourself hidden while downloading torrents. By using SpyOFF VPN , your ISP and Government Agencies will not be able to spy on you, neither would they be able to track your online activity.

Click here and BECOME ANONYMOUS before Downloading Torrents!

More details about USS.Indianapolis.Men.of.Courage.2016.720p.BluRay.DTS.x264-HDS[PRi...


USS.Indianapolis.Men.of.Courage.2016.720p.BluRay.DTS.x264-HDS[PRiME]
ImDb: http://www.imdb.com/title/tt2032572
USS.Indianapolis.Men.of.Courage.2016.720p.BluRay.DTS.x264-HDS[PRi... in Movies
Complete name : USS.Indianapolis.Men.of.Courage.2016.720p.BluRay.DTS.x264-HDS[PRiME].mkv
Format : Matroska
Format version : Version 4 / Version 2
File size : 4.97 GiB
Duration : 2 h 10 min
Overall bit rate : 5 461 kb/s
Movie name : USS Indianapolis Men of Courage 2016 720p BluRay DTS x264-HDS
Encoded date : UTC 2017-01-11 11:31:44
Writing application : mkvmerge v9.7.1 ('Pandemonium') 64bit
Writing library : libebml v1.3.4 libmatroska v1.4.5
Video
ID : 1
Format : AVC
Format/Info : Advanced Video Codec
Format profile : [email protected]/* */
Format settings, CABAC : Yes
Format settings, ReFrames : 12 frames
Codec ID : V_MPEG4/ISO/AVC
Duration : 2 h 10 min
Bit rate : 4 615 kb/s
Width : 1 280 pixels
Height : 536 pixels
Display aspect ratio : 2.40:1
Frame rate mode : Constant
Frame rate : 23.976 (24000/1001) FPS
Color space : YUV
Chroma subsampling : 4:2:0
Bit depth : 8 bits
Scan type : Progressive
Bits/(Pixel*Frame) : 0.281
Stream size : 4.20 GiB (85%)
Title : [email protected]/* */
Writing library : x264 core 148 r2699 6 41 29a38aa Yuuki [[email protected]/* */:2:0 X86_64][GCC 5.3.0]
Encoding settings : cabac=1 / ref=12 / deblock=1:-3:-3 / analyse=0x3:0x113 / me=umh / subme=11 / psy=1 / fade_compensate=0.00 / psy_rd=1.00:0.05 / mixed_ref=1 / me_range=32 / chroma_me=1 / trellis=2 / 8x8dct=1 / cqm=0 / deadzone=21,11 / fast_pskip=0 / chroma_qp_offset=-2 / threads=32 / lookahead_threads=4 / sliced_threads=0 / nr=0 / decimate=1 / interlaced=0 / bluray_compat=0 / constrained_intra=0 / fgo=0 / bframes=8 / b_pyramid=2 / b_adapt=2 / b_bias=0 / direct=3 / weightb=1 / open_gop=0 / weightp=2 / keyint=250 / keyint_min=23 / scenecut=40 / intra_refresh=0 / rc=crf / mbtree=0 / crf=17.8000 / qcomp=0.60 / qpmin=0:0:0 / qpmax=69:69:69 / qpstep=4 / ip_ratio=1.40 / pb_ratio=1.30 / aq=3:0.90
Default : Yes
Forced : No
Audio
ID : 2
Format : DTS
Format/Info : Digital Theater Systems
Mode : 16
Format settings, Endianness : Big
Codec ID : A_DTS
Duration : 2 h 10 min
Bit rate mode : Constant
Bit rate : 768 kb/s
Channel(s) : 6 channels
Channel positions : Front: L C R, Side: L R, LFE
Sampling rate : 48.0 kHz
Frame rate : 93.750 FPS (512 spf)
Bit depth : 24 bits
Compression mode : Lossy
Stream size : 715 MiB (14%)
Title : English
Language : English
Default : Yes
Forced : No
Text #1
ID : 3
Format : PGS
Muxing mode : zlib
Codec ID : S_HDMV/PGS
Codec ID/Info : Picture based subtitle format used on BDs/HD-DVDs
Duration : 1 h 59 min
Bit rate : 18.9 kb/s
Count of elements : 2090
Stream size : 16.2 MiB (0%)
Title : CHS
Language : Chinese
Default : Yes
Forced : No
Text #2
ID : 4
Format : PGS
Muxing mode : zlib
Codec ID : S_HDMV/PGS
Codec ID/Info : Picture based subtitle format used on BDs/HD-DVDs
Duration : 1 h 59 min
Bit rate : 15.4 kb/s
Count of elements : 2090
Stream size : 13.2 MiB (0%)
Title : CHS
Language : Chinese
Default : No
Forced : No
Text #3
ID : 5
Format : PGS
Muxing mode : zlib
Codec ID : S_HDMV/PGS
Codec ID/Info : Picture based subtitle format used on BDs/HD-DVDs
Duration : 1 h 59 min
Bit rate : 19.7 kb/s
Count of elements : 2090
Stream size : 16.9 MiB (0%)
Title : CHT
Language : Chinese
Default : No
Forced : No
Text #4
ID : 6
Format : PGS
Muxing mode : zlib
Codec ID : S_HDMV/PGS
Codec ID/Info : Picture based subtitle format used on BDs/HD-DVDs
Duration : 1 h 59 min
Bit rate : 15.8 kb/s
Count of elements : 2090
Stream size : 13.5 MiB (0%)
Title : CHT
Language : Chinese
Default : No
Forced : No
Text #5
ID : 7
Format : PGS
Muxing mode : zlib
Codec ID : S_HDMV/PGS
Codec ID/Info : Picture based subtitle format used on BDs/HD-DVDs
Duration : 1 h 59 min
Bit rate : 12.2 kb/s
Count of elements : 3138
Stream size : 10.5 MiB (0%)
Title : ENG
Language : English
Default : No
Forced : No
Menu
00:00:00.000 : en:00:00:00.000
00:07:27.238 : en:00:07:27.238
00:15:49.657 : en:00:15:49.657
00:22:52.663 : en:00:22:52.663
00:30:16.148 : en:00:30:16.148
00:37:44.554 : en:00:37:44.554
00:45:55.586 : en:00:45:55.586
00:53:28.455 : en:00:53:28.455
00:59:52.339 : en:00:59:52.339
01:07:39.681 : en:01:07:39.681
01:15:58.387 : en:01:15:58.387
01:23:01.476 : en:01:23:01.476
01:31:18.139 : en:01:31:18.139
01:37:37.685 : en:01:37:37.685
01:45:20.022 : en:01:45:20.022
01:53:53.869 : en:01:53:53.869
USS.Indianapolis.Men.of.Courage.2016.720p.BluRay.DTS.x264-HDS[PRi... in Movies
Click Image To View Full Size
USS.Indianapolis.Men.of.Courage.2016.720p.BluRay.DTS.x264-HDS[PRi... in Movies
Click To View Screenshot
Click To View Screenshot
Click To View Screenshot
&

 Related torrents

Torrent name Subcategory Age Size
Other 2 days 540.33 Mb 0 0
Other 1 week 916.78 Mb 0 0
Other 1 week 1.83 Gb 0 0
Other 2 weeks 990.66 Mb 0 0
Other 2 weeks 1.2 Gb 0 0
Other 2 weeks 813.69 Mb 0 0
Other 2 weeks 761.74 Mb 0 0
Other 2 weeks 1.12 Gb 0 0
Other 2 weeks 1.12 Gb 0 0
Other 2 weeks 1.46 Gb 0 0